<?xml version="1.0" standalone="no"?>
<!DOCTYPE svg PUBLIC "-//W3C//DTD SVG 1.1//EN" "http://www.w3.org/Graphics/SVG/1.1/DTD/svg11.dtd">
<svg xmlns="http://www.w3.org/2000/svg">
<metadata>Copyright (C) 2014 by original authors @ fontello.com</metadata>
<defs>
<font id="fontello" horiz-adv-x="1000" >
<font-face font-family="fontello" font-weight="400" font-stretch="normal" units-per-em="1000" ascent="850" descent="-150" />
<missing-glyph horiz-adv-x="1000" />
<glyph glyph-name="note" unicode="&#xe800;" d="m381 820q0-42 46-97t90-100t61-119t-39-154q-20-34-26-16q-2 6 0 16q10 18 6 56t-13 78t-43 73t-82 41l0-536q2-48-37-95t-105-71q-74-28-143-8t-89 76t20 115t116 85q86 30 158 4l0 652l80 0z" horiz-adv-x="582" />
<glyph glyph-name="logo-db" unicode="&#xe83e;" d="m546 240q48-90-4-180q-42-70-115-88t-151 26l-64 36l-108-184l-56 32l206 358q-68-10-134 28l-120 70l186 324l122-70q66-40 92-100l206 358l58-34l-108-186l64-36q76-44 98-119t-20-143q-48-88-152-92z m44 302l-64 38l-124-216q0-2-2-6l62-36q52-30 100-17t76 61t15 97t-63 79z m-440-222q52-30 100-17t76 61t15 98t-63 78l-64 38l-128-222z m156-270q52-30 100-17t76 61t14 97t-64 79l-62 36l-4-4l-124-216z" horiz-adv-x="726" />
<glyph glyph-name="music" unicode="&#xe908;" d="m600 800q42 0 71-29t29-71l0-700q0-40-29-70t-71-30l-500 0q-40 0-70 30t-30 70l0 700q0 42 30 71t70 29l500 0z m-110-476q32 44 23 92t-33 80t-49 66t-25 54l-60 0l0-368q-42 16-90-2q-42-14-64-48t-12-64q12-32 53-45t85 1q88 30 88 98l0 262q36-6 55-32t18-52t-3-42q-4-10 2-10q4 0 12 10z" horiz-adv-x="700" />
<glyph glyph-name="search" unicode="&#xe909;" d="m772 78q30-34 6-62l-46-46q-36-32-68 0l-190 190q-74-42-156-42q-128 0-223 95t-95 223t90 219t218 91t224-95t96-223q0-88-46-162z m-678 358q0-88 68-156t156-68t151 63t63 153q0 88-68 155t-156 67t-151-63t-63-151z" horiz-adv-x="789" />
<glyph glyph-name="flashlight" unicode="&#xe90a;" d="m807 706q62-62 85-130t-5-92l-134-134q-16-16-62-26t-96-4l-408-408q-18-18-57-6t-75 50q-36 36-49 74t5 56l408 408q-6 50 4 96t26 62l136 136q24 28 92 4t130-86z m-448-408q32-32 80 14q46 46 14 82q-14 14-38 10t-44-24t-23-43t11-39z m336 298q30-30 68-50t62-25t28-1q2 4-4 27t-26 60t-50 67t-66 50t-59 26t-27 2t1-28t25-62t48-66z" horiz-adv-x="902" />
<glyph glyph-name="mail" unicode="&#xe90b;" d="m30 586q-32 18-28 40q2 14 26 14l846 0q38 0 20-32q-8-14-24-22q-14-6-192-102t-182-98q-16-10-46-10q-28 0-46 10q-4 2-182 98t-192 102z m850-100q20 10 20-10l0-368q0-16-17-32t-33-16l-800 0q-16 0-33 16t-17 32l0 368q0 20 20 10l384-200q18-10 46-10t46 10z" horiz-adv-x="900" />
<glyph glyph-name="heart" unicode="&#xe90c;" d="m790 644q70-64 70-156t-70-158l-360-330l-360 330q-70 66-70 158t70 156q62 58 151 58t153-58l56-52l58 52q62 58 150 58t152-58z" horiz-adv-x="860" />
<glyph glyph-name="heart-empty" unicode="&#xe90d;" d="m790 642q70-64 70-156t-70-156l-360-330l-360 330q-70 64-70 156t70 156q64 58 152 58t150-58l58-52l56 52q64 58 152 58t152-58z m-54-260q42 40 42 104q0 66-38 100q-38 38-102 38q-52 0-104-48l-104-92l-106 92q-48 48-102 48q-64 0-104-38q-38-36-38-100q0-66 44-104l306-286z" horiz-adv-x="860" />
<glyph glyph-name="star" unicode="&#xe90e;" d="m440 790l120-336l320 0l-262-196l94-348l-272 208l-272-208l94 348l-262 196l320 0z" horiz-adv-x="880" />
<glyph glyph-name="star-empty" unicode="&#xe90f;" d="m880 454l-262-196l94-348l-272 208l-272-208l94 348l-262 196l320 0l120 336l120-336l320 0z m-440-238l150-124l-62 178l144 114l-176-4l-56 202l-54-202l-176 4l142-114l-62-178z" horiz-adv-x="880" />
<glyph glyph-name="user" unicode="&#xe910;" d="m736 128q204-72 204-122l0-106l-940 0l0 106q0 50 204 122q94 34 128 69t34 95q0 22-22 49t-32 73q-2 12-9 18t-14 8t-14 17t-9 43q0 16 5 26t9 12l4 4q-8 50-12 88q-4 54 41 112t157 58t158-58t40-112l-12-88q18-8 18-42q-2-28-9-43t-14-17t-14-8t-9-18q-8-48-31-74t-23-48q0-60 35-95t127-69z" horiz-adv-x="940" />
<glyph glyph-name="users" unicode="&#xe911;" d="m1000-90l-224 0l0 150q0 54-30 81t-154 89q40 30 40 84q0 16-13 33t-19 51q-2 8-14 16t-14 42q0 24 12 30q-6 34-8 60q-4 38 23 78t95 40t96-40t24-78l-8-60q12-6 12-30q-2-34-14-42t-14-16q-6-34-19-51t-13-33q0-42 21-66t77-48q112-46 130-80q6-8 9-61t5-101l0-48z m-488 262q182-78 182-124l0-138l-694 0l0 184q0 44 84 78q76 32 104 64t28 88q0 20-19 44t-25 68q-2 10-18 22t-20 56q0 14 3 23t7 13l4 2q-6 46-10 82q-4 50 33 103t127 53t127-53t33-103l-10-82q14-8 14-38q-4-44-20-56t-18-22q-6-44-25-68t-19-44q0-56 28-88t104-64z" horiz-adv-x="1000" />
<glyph glyph-name="user-add" unicode="&#xe912;" d="m620 128q180-64 180-122l0-106l-800 0l0 202q36 14 82 26q94 34 129 69t35 95q0 22-23 48t-31 74q-2 12-23 25t-25 61q0 16 5 26t9 12l4 4q-8 50-12 88q-6 54 40 112t160 58t160-58t42-112l-14-88q18-8 18-42q-2-28-9-43t-14-17t-14-8t-9-18q-10-46-33-73t-23-49q0-60 36-95t130-69z m230 272l150 0l0-100l-150 0l0-150l-100 0l0 150l-150 0l0 100l150 0l0 150l100 0l0-150z" horiz-adv-x="1000" />
<glyph glyph-name="video" unicode="&#xe913;" d="m980 600l-100 0l0-100l100 0l0-100l-100 0l0-100l100 0l0-100l-100 0l0-100l100 0l0-60q0-16-12-28t-28-12l-900 0q-16 0-28 12t-12 28l0 60l100 0l0 100l-100 0l0 100l100 0l0 100l-100 0l0 100l100 0l0 100l-100 0l0 60q0 18 12 29t28 11l900 0q16 0 28-11t12-29l0-60z m-600-400l250 150l-250 150l0-300z" horiz-adv-x="980" />
<glyph glyph-name="picture" unicode="&#xe914;" d="m856 518l-100 0l-124 150l-214-150l-180 0q-52 0-90-39t-38-91l0-160l-108 296q-10 38 22 52l680 248q36 10 50-24z m106-90q16 0 27-12t11-28l0-472q0-16-11-28t-27-12l-724 0q-16 0-27 12t-11 28l0 472q0 16 11 28t27 12l724 0z m-56-452l0 162l-72 160l-166-60l-130-132l-138 170l-92-214l0-86l598 0z" horiz-adv-x="1000" />
<glyph glyph-name="camera" unicode="&#xe915;" d="m500 450q64 0 107-44t43-106t-44-106t-106-44t-106 44t-44 106t44 106t106 44z m400 150q42 0 71-29t29-71l0-450q0-40-29-70t-71-30l-800 0q-40 0-70 30t-30 70l0 450q0 42 30 71t70 29l120 0q28 0 40 30l30 92q10 28 40 28l340 0q30 0 40-28l30-92q12-30 40-30l120 0z m-400-550q104 0 177 73t73 177t-73 177t-177 73t-177-73t-73-177t73-177t177-73z m366 380q14 0 24 11t10 25t-10 24t-24 10q-36 0-36-34q0-16 11-26t25-10z" horiz-adv-x="1000" />
<glyph glyph-name="layout" unicode="&#xe916;" d="m170 650q80 0 80-80l0-90q0-80-80-80l-90 0q-80 0-80 80l0 90q0 80 80 80l90 0z m350 0q80 0 80-80l0-90q0-80-80-80l-90 0q-80 0-80 80l0 90q0 80 80 80l90 0z m-350-350q80 0 80-80l0-90q0-80-80-80l-90 0q-80 0-80 80l0 90q0 80 80 80l90 0z m350 0q80 0 80-80l0-90q0-80-80-80l-90 0q-80 0-80 80l0 90q0 80 80 80l90 0z" horiz-adv-x="600" />
<glyph glyph-name="menu" unicode="&#xe917;" d="m650 400q22 0 36-15t14-35t-15-35t-35-15l-600 0q-20 0-35 15t-15 35t14 35t36 15l600 0z m-600 100q-20 0-35 15t-15 35t14 35t36 15l600 0q22 0 36-15t14-35t-15-35t-35-15l-600 0z m600-300q22 0 36-15t14-35t-15-35t-35-15l-600 0q-20 0-35 15t-15 35t14 35t36 15l600 0z" horiz-adv-x="700" />
<glyph glyph-name="check" unicode="&#xe918;" d="m249 0q-34 0-56 28l-180 236q-16 24-12 52t26 46t51 14t47-28l118-154l296 474q16 24 43 30t53-8q24-16 30-43t-8-53l-350-560q-20-32-56-32z" horiz-adv-x="667" />
<glyph glyph-name="cancel" unicode="&#xe919;" d="m452 194q18-18 18-43t-18-43q-18-16-43-16t-43 16l-132 152l-132-152q-18-16-43-16t-43 16q-16 18-16 43t16 43l138 156l-138 158q-16 18-16 43t16 43q18 16 43 16t43-16l132-152l132 152q18 16 43 16t43-16q18-18 18-43t-18-43l-138-158z" horiz-adv-x="470" />
<glyph glyph-name="cancel-circled" unicode="&#xe8a3;" d="m420 770q174 0 297-123t123-297t-123-297t-297-123t-297 123t-123 297t123 297t297 123z m86-420l154 154l-86 86l-154-152l-152 152l-88-86l154-154l-154-152l88-86l152 152l154-152l86 86z" horiz-adv-x="840" />
<glyph glyph-name="cancel-squared" unicode="&#xe8a4;" d="m700 750q42 0 71-29t29-71l0-600q0-40-29-70t-71-30l-600 0q-40 0-70 30t-30 70l0 600q0 42 30 71t70 29l600 0z m-146-638l86 86l-154 152l154 154l-86 86l-154-152l-152 152l-88-86l154-154l-154-152l88-86l152 152z" horiz-adv-x="800" />
<glyph glyph-name="plus" unicode="&#xe8a5;" d="m550 400q30 0 30-50t-30-50l-210 0l0-210q0-30-50-30t-50 30l0 210l-210 0q-30 0-30 50t30 50l210 0l0 210q0 30 50 30t50-30l0-210l210 0z" horiz-adv-x="580" />
<glyph glyph-name="plus-circled" unicode="&#xe8a6;" d="m420 770q174 0 297-123t123-297t-123-297t-297-123t-297 123t-123 297t123 297t297 123z m52-470l200 0l0 102l-200 0l0 202l-102 0l0-202l-202 0l0-102l202 0l0-202l102 0l0 202z" horiz-adv-x="840" />
<glyph glyph-name="plus-squared" unicode="&#xe8a7;" d="m700 750q42 0 71-29t29-71l0-600q0-40-29-70t-71-30l-600 0q-40 0-70 30t-30 70l0 600q0 42 30 71t70 29l600 0z m-50-450l0 100l-200 0l0 200l-100 0l0-200l-200 0l0-100l200 0l0-200l100 0l0 200l200 0z" horiz-adv-x="800" />
<glyph glyph-name="minus" unicode="&#xe8a8;" d="m550 400q30 0 30-50t-30-50l-520 0q-30 0-30 50t30 50l520 0z" horiz-adv-x="580" />
<glyph glyph-name="minus-circled" unicode="&#xe8a9;" d="m420 770q174 0 297-123t123-297t-123-297t-297-123t-297 123t-123 297t123 297t297 123z m252-368l-504 0l0-102l504 0l0 102z" horiz-adv-x="840" />
<glyph glyph-name="minus-squared" unicode="&#xe8aa;" d="m700 750q42 0 71-29t29-71l0-600q0-40-29-70t-71-30l-600 0q-40 0-70 30t-30 70l0 600q0 42 30 71t70 29l600 0z m-50-450l0 100l-500 0l0-100l500 0z" horiz-adv-x="800" />
<glyph glyph-name="help" unicode="&#xe8ab;" d="m494 740q86-62 86-184q0-64-42-124q-12-20-88-80l-46-30q-40-34-48-60q-6-16-8-44q0-14-16-14l-128 0q-16 0-16 12q4 98 28 124q16 22 48 48t56 42l24 14q22 16 34 34q28 44 28 70q0 40-26 78q-28 36-92 36q-68 0-94-44q-28-42-28-92l-166 0q6 162 114 232q70 42 166 42q130 0 214-60z m-216-636q44 0 73-30t27-74q-2-46-32-73t-74-25q-44 0-73 29t-27 75t32 73t74 25z" horiz-adv-x="580" />
<glyph glyph-name="help-circled" unicode="&#xe8ac;" d="m454 810q190 2 326-130t140-322q2-190-131-327t-323-141q-190-2-327 131t-139 323q-4 190 130 327t324 139z m-2-740q30 0 49 19t19 47q2 30-17 49t-49 19l-2 0q-28 0-47-18t-21-46q0-30 19-49t47-21l2 0z m166 328q26 34 26 78q0 78-54 116q-52 38-134 38q-64 0-104-26q-68-42-72-146l0-4l110 0l0 4q0 26 16 54q16 24 54 24q40 0 52-20q16-20 16-44q0-18-16-40q-8-12-20-20l-6-4q-6-4-16-11t-20-15t-21-17t-17-17q-14-20-18-78l0-8l108 0l0 4q0 12 4 28q6 20 28 36l28 18q46 34 56 50z" horiz-adv-x="920" />
<glyph glyph-name="info" unicode="&#xe8ad;" d="m352 850q48 0 74-27t26-69q0-50-39-88t-95-38q-48 0-74 26t-24 72q0 46 35 85t97 39z m-206-1000q-100 0-54 178l60 254q14 56 0 56q-12 0-54-18t-72-38l-26 44q90 78 189 126t151 48q78 0 36-162l-70-266q-16-64 6-64q44 0 118 60l30-40q-84-86-175-132t-139-46z" horiz-adv-x="460" />
<glyph glyph-name="info-circled" unicode="&#xe8ae;" d="m454 810q190 2 326-130t140-322q2-190-131-327t-323-141q-190-2-327 131t-139 323q-4 190 130 327t324 139z m52-152q-42 0-65-24t-23-50q-2-28 15-44t49-16q38 0 61 22t23 54q0 58-60 58z m-120-594q30 0 84 26t106 78l-18 24q-48-36-72-36q-14 0-4 38l42 160q26 96-22 96q-30 0-89-29t-115-75l16-26q52 34 74 34q12 0 0-34l-36-152q-26-104 34-104z" horiz-adv-x="920" />
<glyph glyph-name="back" unicode="&#xe8af;" d="m750 540q40 0 70-29t30-71l0-290q0-40-30-70t-70-30l-690 0l0 140l650 0l0 210l-500 0l0-110l-210 180l210 180l0-110l540 0z" horiz-adv-x="850" />
<glyph glyph-name="home" unicode="&#xe8b0;" d="m888 336q16-16 11-27t-27-11l-84 0l0-310q0-14-1-21t-8-13t-23-6l-204 0l0 310l-204 0l0-310l-194 0q-28 0-35 10t-7 30l0 310l-84 0q-22 0-27 11t11 27l400 402q16 16 38 16t38-16z" horiz-adv-x="900" />
<glyph glyph-name="link" unicode="&#xe8b1;" d="m294 116q14 14 34 14t36-14q32-34 0-70l-42-40q-56-56-132-56q-78 0-134 56t-56 132q0 78 56 134l148 148q70 68 144 77t128-43q16-16 16-36t-16-36q-36-32-70 0q-50 48-132-34l-148-146q-26-26-26-64t26-62q26-26 63-26t63 26z m450 574q56-56 56-132q0-78-56-134l-158-158q-74-72-150-72q-62 0-112 50q-14 14-14 34t14 36q14 14 35 14t35-14q50-48 122 24l158 156q28 28 28 64q0 38-28 62q-24 26-56 31t-60-21l-50-50q-16-14-36-14t-34 14q-34 34 0 70l50 50q54 54 127 51t129-61z" horiz-adv-x="800" />
<glyph glyph-name="attach" unicode="&#xe8b2;" d="m244-140q-102 0-170 72q-72 70-74 166t84 190l496 496q80 80 174 54q44-12 79-47t47-79q26-96-54-176l-474-474q-40-40-88-46q-48-4-80 28q-30 24-27 74t47 92l332 334q24 26 50 0t0-50l-332-332q-44-44-20-70q12-8 24-6q24 4 46 26l474 474q50 50 34 108q-16 60-76 76q-54 14-108-36l-494-494q-66-76-64-143t52-117q50-48 117-50t141 62l496 494q24 24 50 0q26-22 0-48l-496-496q-82-82-186-82z" horiz-adv-x="939" />
<glyph glyph-name="lock" unicode="&#xe8b3;" d="m640 476q20 0 40-19t20-41l0-390q0-48-48-66l-60-18q-42-16-96-16l-290 0q-56 0-98 16l-60 18q-48 18-48 66l0 390q0 22 15 41t35 19l100 0l0 70q0 110 51 170t149 60t149-60t51-170l0-70l90 0z m-390 90l0-90l200 0l0 90q0 52-27 81t-73 29t-73-29t-27-81z" horiz-adv-x="700" />
<glyph glyph-name="lock-open" unicode="&#xe8b4;" d="m640 450q20 0 40-20t20-40l0-390q0-20-14-39t-34-25l-60-20q-52-16-96-16l-290 0q-46 0-98 16l-60 20q-20 6-34 25t-14 39l0 390q0 22 15 41t35 19l400 0l0 140q0 110-100 110t-100-110l0-40l-100 0l0 20q0 110 51 170t149 60q200 0 200-230l0-120l90 0z" horiz-adv-x="700" />
<glyph glyph-name="eye" unicode="&#xe8b5;" d="m500 630q92 0 177-25t141-62t99-77t63-71t20-45t-20-44t-63-71t-99-78t-141-62t-177-25t-177 25t-141 62t-99 78t-63 71t-20 44t20 45t63 71t99 77t141 62t177 25z m0-494q92 0 157 63t65 151q0 90-65 153t-157 63t-157-63t-65-153q0-88 65-151t157-63z m0 214q8-8 37-2t50 11t25-9q0-44-33-75t-79-31t-78 31t-32 75q0 46 32 77t78 31q14 0 10-23t-12-47t2-38z" horiz-adv-x="1000" />
<glyph glyph-name="tag" unicode="&#xe8b6;" d="m944 830q36-106-8-199t-128-157l18-24q16-28 6-54l-48-158q-12-30-36-46l-464-328q-42-30-64 4l-210 304q-12 18-9 39t21 33l464 328q26 18 54 18l158 0q30 0 48-26l28-40q168 130 114 286q-10 28 18 40q32 8 38-20z m-216-468q40 32 34 80l-32-16q-8-4-12-4q-18 0-28 18q-12 30 16 40l24 14q-48 34-92 0q-28-18-34-51t14-61q18-26 51-32t59 12z" horiz-adv-x="960" />
<glyph glyph-name="bookmark" unicode="&#xe8b7;" d="m310 800q22 0 36-15t14-35l0-850l-180 180l-180-180l0 850q0 50 40 50l270 0z" horiz-adv-x="360" />
<glyph glyph-name="bookmarks" unicode="&#xe8b8;" d="m500 850q20 0 35-15t15-35l0-850l-150 180l0 620q0 20-15 35t-35 15l-100 0q0 50 40 50l210 0z m-250-150q20 0 35-15t15-35l0-800l-150 180l-150-180l0 800q0 50 40 50l210 0z" horiz-adv-x="550" />
<glyph glyph-name="flag" unicode="&#xe8b9;" d="m874 616q14 6 22-1t0-19q-96-138-164-213t-110-90t-73-2t-60 37t-63 40t-93-4t-139-86l90-352l-100 0l-184 720l92 34q90 66 152 86t98 3t64-51t62-71t79-62t129-20t198 51z" horiz-adv-x="900" />
<glyph glyph-name="thumbs-up" unicode="&#xe8ba;" d="m582 480q2-6 58-13t108-24t52-47q0-72-61-284t-107-212q-144 0-288 42t-144 88l0 342q0 14 15 34t46 45t53 41t62 43t46 31q50 34 104 100t85 104t41 26q48-76 29-137t-59-119t-40-60z m-432-4q14 0 0-14q-50-50-50-104l0-318q0-50 52-104q10-10-2-10q-26 0-55 8t-62 45t-33 99l0 242q0 62 33 100t63 47t54 9z" horiz-adv-x="800" />
<glyph glyph-name="thumbs-down" unicode="&#xe8bb;" d="m218 218q-2 6-57 13t-108 24t-53 47q0 72 62 285t106 213q144 0 288-43t144-89l0-342q0-10-8-24t-25-30t-32-29t-42-32t-41-29t-41-28l-33-22q-50-34-104-100t-85-104t-41-26q-48 76-29 137t59 119t40 60z m432 4q-12 0 2 14q48 50 48 104l0 318q0 50-52 104q-10 10 2 10q26 0 55-8t62-45t33-99l0-242q0-48-18-81t-45-48t-48-21t-39-6z" horiz-adv-x="800" />
<glyph glyph-name="download" unicode="&#xe8bc;" d="m968 198q18-10 27-32t3-40l-28-154q-4-20-22-33t-40-13l-816 0q-22 0-40 13t-22 33l-28 154q-10 48 32 72l158 108l98 0l-170-130l178 0q8 0 12-8l40-110l300 0l40 110q8 8 12 8l178 0l-170 130l98 0z m-208 322l-260-244l-260 244l166 0l0 256l190 0l0-256l164 0z" horiz-adv-x="1000" />
<glyph glyph-name="upload" unicode="&#xe8bd;" d="m500 776l260-244l-164 0l0-256l-190 0l0 256l-166 0z m468-578q18-10 27-32t3-40l-28-154q-4-20-22-33t-40-13l-816 0q-22 0-40 13t-22 33l-28 154q-10 48 32 72l158 108l98 0l-170-130l178 0q8 0 12-8l40-110l300 0l40 110q8 8 12 8l178 0l-170 130l98 0z" horiz-adv-x="1000" />
<glyph glyph-name="upload-cloud" unicode="&#xe8be;" d="m760 494q100 0 170-68t70-166t-70-166t-170-68l-190 0l0 190l106 0l-176 230l-174-230l104 0l0-190l-248 0q-74 0-128 52t-54 124q0 74 53 126t129 52q14 0 20-2q-2 12-2 38q0 108 78 184t188 76q90 0 160-52t94-134q28 4 40 4z" horiz-adv-x="1000" />
<glyph glyph-name="reply" unicode="&#xe8bf;" d="m900 10q-86 152-208 197t-330 45l0-218l-362 334l362 322l0-192q90 0 168-27t131-70t96-95t69-104t44-95t24-69z" horiz-adv-x="900" />
<glyph glyph-name="reply-all" unicode="&#xe8c0;" d="m362 556l-212-188l212-196l0-138l-362 334l362 322l0-134z m250-58q104 0 182-50t115-122t60-144t27-122l4-50q-86 154-168 198t-220 44l0-218l-362 334l362 322l0-192z" horiz-adv-x="1000" />
<glyph glyph-name="forward" unicode="&#xe8c1;" d="m540 252q-210 0-332-45t-208-197q4 20 13 53t50 117t96 148t156 117t225 53l0 192l360-322l-360-334l0 218z" horiz-adv-x="900" />
<glyph glyph-name="quote" unicode="&#xe8c2;" d="m146 680q146 0 184-146q38-140-40-302q-80-168-224-204q-32-8-66-8l0 70q112 0 182 108q54 86 26 146q-16 36-62 36q-60 0-103 44t-43 106t43 106t103 44z m420 0q146 0 184-146q38-140-40-302q-80-168-224-204q-32-8-66-8l0 70q112 0 182 108q54 86 26 146q-16 36-62 36q-60 0-103 44t-43 106t43 106t103 44z" horiz-adv-x="762" />
<glyph glyph-name="code" unicode="&#xe8c3;" d="m380 636q16-14 16-32t-16-30l-246-224l246-226q16-12 16-30t-16-32q-30-30-60 0l-320 288l320 286q30 30 60 0z m302 0l318-286l-318-288q-32-30-62 0q-32 32 0 62l248 226l-248 224q-32 30 0 62q30 30 62 0z" horiz-adv-x="1000" />
<glyph glyph-name="export" unicode="&#xe8c4;" d="m750 60l0 56l100 82l0-188q0-20-15-35t-35-15l-750 0q-20 0-35 15t-15 35l0 550q0 22 14 36t36 14l288 0q-32-24-59-49t-39-39l-10-12l-130 0l0-450l650 0z m-82 348q-166 0-242-41t-160-181q0 8 1 22t9 56t22 79t44 83t70 79t107 56t149 23l0 156l332-250l-332-260l0 178z" horiz-adv-x="1000" />
<glyph glyph-name="pencil" unicode="&#xe8c5;" d="m718 680q32-32 47-64t15-48l0-16l-252-252l-290-288l-238-52l50 240l290 288l252 252q54 12 126-60z m-494-640l24 24q-2 44-52 94q-22 22-45 35t-35 13l-14 2l-22-24l-18-80q28-16 46-34q24-24 36-48z" horiz-adv-x="780" />
<glyph glyph-name="feather" unicode="&#xe8c6;" d="m60-138q-6-20-26-8q-18 8-16 34q4 100 50 226q-100 154-52 316q10-32 32-78t44-80t32-30q8 4 0 83t-11 166t25 157q22 44 80 94t104 70q-24-46-33-94t-4-78t21-32q12 0 84 120t106 122q46 4 114-29t82-65q12-24 0-79t-40-83q-44-44-146-62t-114-24q-16-10 12-34q54-48 176-20q-56-80-136-114t-132-38t-54-10q-4-24 49-54t101-14q-30-56-63-84t-54-35t-76-11t-85-8z" horiz-adv-x="698" />
<glyph glyph-name="print" unicode="&#xe8c7;" d="m66 526q-26 0-22 22q4 10 12 14q2 0 49 17t93 32t58 15l44 0l0 150l380 0l0-150l46 0q12 0 57-15t92-32t49-17q18-8 12-26q-4-10-20-10l-850 0z m860-56q20 0 37-19t17-41l0-174q0-22-17-41t-37-19l-100 0l44-250l-760 0l44 250l-98 0q-20 0-38 19t-18 41l0 174q0 22 18 41t38 19l870 0z m-716-444l560 0l-70 324l-420 0z" horiz-adv-x="980" />
<glyph glyph-name="retweet" unicode="&#xe8c8;" d="m250 190l272 0l128-140l-448 0q-42 0-71 30t-29 70l0 302l-102 0l176 198l174-198l-100 0l0-262z m650 60l100 0l-174-200l-176 200l102 0l0 260l-274 0l-128 140l450 0q40 0 70-29t30-71l0-300z" horiz-adv-x="1000" />
<glyph glyph-name="keyboard" unicode="&#xe8c9;" d="m930 650q28 0 49-21t21-49l0-460q0-30-21-50t-49-20l-860 0q-28 0-49 20t-21 50l0 460q0 28 21 49t49 21l860 0z m-380-100l0-100l100 0l0 100l-100 0z m150-150l-100 0l0-100l100 0l0 100z m-300 150l0-100l100 0l0 100l-100 0z m150-150l-100 0l0-100l100 0l0 100z m-300 150l0-100l100 0l0 100l-100 0z m150-150l-100 0l0-100l100 0l0 100z m-300 150l0-100l100 0l0 100l-100 0z m150-150l-100 0l0-100l100 0l0 100z m-50-250l0 100l-100 0l0-100l100 0z m550 0l0 100l-500 0l0-100l500 0z m150 0l0 100l-100 0l0-100l100 0z m-150 150l100 0l0 100l-100 0l0-100z m150 150l0 100l-200 0l0-100l200 0z" horiz-adv-x="1000" />
<glyph glyph-name="comment" unicode="&#xe8ca;" d="m700 700q42 0 71-29t29-71l0-350q0-40-29-70t-71-30l-200 0l0-150l-200 150l-200 0q-40 0-70 30t-30 70l0 350q0 42 30 71t70 29l600 0z" horiz-adv-x="800" />
<glyph glyph-name="chat" unicode="&#xe8cb;" d="m290 240l350 0q2 0 6 2l4 0l0-92q0-40-29-70t-71-30l-250 0l-150-150l0 150l-50 0q-40 0-70 30t-30 70l0 300q0 42 30 71t70 29l190 0l0-310z m610 560q42 0 71-29t29-71l0-300q0-40-29-70t-71-30l-50 0l0-150l-150 150l-350 0l0 400q0 42 30 71t70 29l450 0z" horiz-adv-x="1000" />
<glyph glyph-name="bell" unicode="&#xe8cc;" d="m632 426q16-34 40-52t45-22t44-23t35-55q22-62-74-161t-252-157q-164-58-297-45t-155 75q-20 54 12 111t18 111q-56 192-47 300t113 192q26 22 29 51t29 39q24 8 46-12t56-18q132 2 198-66t160-268z m-186-404q88 32 159 85t100 91t25 50q-8 22-49 33t-124 1t-187-48q-102-38-173-87t-94-84t-17-53q4-12 50-22t134-4t176 38z m-62 174q8 2 21 7t17 7l2-2q14-40-17-83t-89-63q-96-36-152 14q78 68 218 120z" horiz-adv-x="800" />
<glyph glyph-name="attention" unicode="&#xe8cd;" d="m957-24q10-16 0-34q-10-16-30-16l-892 0q-18 0-28 16q-13 18-2 34l446 782q8 18 30 18t30-18z m-420 50l0 100l-110 0l0-100l110 0z m0 174l0 300l-110 0l0-300l110 0z" horiz-adv-x="962" />
<glyph glyph-name="alert" unicode="&#xe8ce;" d="m885 234q20-16 16-33t-28-23l-78-22q-24-6-40-28t-14-48l4-82q2-24-14-34t-38 0l-86 44q-22 12-47 4t-35-30l-46-88q-12-22-29-23t-33 19l-50 78q-34 48-88 20l-122-70q-22-14-32-6t-2 32l54 164q8 24-4 44t-36 22l-106 12q-24 4-29 18t15 30l86 76q20 16 20 41t-20 41l-86 76q-20 16-16 33t28 23l78 22q24 6 41 28t15 48l-6 82q0 26 15 36t37 0l80-38q24-10 49-2t37 30l46 80q12 22 30 21t30-23l50-86q12-22 35-29t45 7l136 84q22 14 30 6t0-32l-60-170q-10-22 2-41t38-21l114-12q26-2 30-16t-16-30l-86-76q-18-16-18-41t18-41z m-384-92l0 104l-100 0l0-104l100 0z m0 160l0 260l-100 0l0-260l100 0z" horiz-adv-x="901" />
<glyph glyph-name="vcard" unicode="&#xe8cf;" d="m900 750q42 0 71-29t29-71l0-600q0-40-29-70t-71-30l-800 0q-40 0-70 30t-30 70l0 600q0 42 30 71t70 29l800 0z m0-700l0 600l-800 0l0-600l800 0z m-450 196l0-90l-250 0l0 90l250 0z m0 150l0-90l-250 0l0 90l250 0z m0 150l0-90l-250 0l0 90l250 0z m346-320l4-70l-250 0q0 70 6 70q84 22 84 66q0 16-27 56t-27 88q0 110 90 110t90-110q0-48-28-88t-28-56q0-20 21-36t43-22z" horiz-adv-x="1000" />
<glyph glyph-name="address" unicode="&#xe8d0;" d="m426 800q20 0 20-20l0-860q0-20-20-20l-46 0q-20 0-20 20l0 440l-176 0q-16 0-28 6q-12 2-26 12l-120 82q-10 6-10 16t10 16l120 82q14 10 26 12q8 4 28 4l176 0l0 190q0 20 20 20l46 0z m564-208q10-6 10-16t-10-16l-118-82q-22-12-26-12q-14-6-28-6l-302 0l-40 230l342 0q18 0 28-4t26-12z" horiz-adv-x="1000" />
<glyph glyph-name="location" unicode="&#xe8d1;" d="m250 750q104 0 177-73t73-177q0-106-62-243t-126-223l-62-84q-10 12-27 35t-60 89t-76 130t-60 147t-27 149q0 104 73 177t177 73z m0-388q56 0 96 40t40 96t-40 95t-96 39t-95-39t-39-95t39-96t95-40z" horiz-adv-x="500" />
<glyph glyph-name="map" unicode="&#xe8d2;" d="m984 600q16-10 16-30l0-584q0-20-16-30q-8-6-16-6t-18 6l-216 136l-216-136q-18-10-34 0l-218 136l-216-136q-16-10-34 0q-16 10-16 30l0 584q0 20 16 30l234 146q18 10 34 0l216-136l218 136q16 10 32 0z m-750-450l0 506l-168-104l0-506z m234-104l0 506l-168 104l0-506z m234 104l0 506l-170-104l0-506z m232-104l0 506l-168 104l0-506z" horiz-adv-x="1000" />
<glyph glyph-name="direction" unicode="&#xe8d3;" d="m848 768q8-8 11-16t-2-22t-10-26t-19-39t-24-49q-54-112-147-286t-157-292l-66-118l-54 380l-380 56q442 246 696 368q20 10 48 25t39 20t25 9t23 1t17-11z m-92-96l-304-280l28-234z" horiz-adv-x="860" />
<glyph glyph-name="compass" unicode="&#xe8d4;" d="m474 830q198 2 340-136t146-336q2-200-136-342t-338-146q-198-2-341 137t-145 337q-4 200 135 342t339 144z m12-858q156 2 266 114t108 270t-115 267t-269 107q-158-2-267-114t-107-270t114-267t270-107z m-234 154q4 26 12 66t41 128t77 132t125 76t141 42l60 10q-4-26-12-66t-41-128t-77-132q-42-42-124-74t-142-42z m180 276q-22-20-22-48t22-50q20-22 49-22t49 22q52 52 88 186q-136-36-186-88z" horiz-adv-x="960" />
<glyph glyph-name="cup" unicode="&#xe8d5;" d="m340 760q152 0 249-41t91-87l-72-594q-2-14-34-36t-97-42t-137-20t-136 20t-97 42t-35 36l-72 594q-4 28 36 57t121 50t183 21z m0-216q72 0 137 15t98 33t33 30t-33 29t-98 32t-137 15t-137-15t-98-32t-33-29t33-30t98-33t137-15z" horiz-adv-x="681" />
<glyph glyph-name="trash" unicode="&#xe8d6;" d="m50 458q122-70 330-70t330 70l-54-486q-2-14-35-36t-100-43t-141-21t-140 21t-100 43t-36 36z m488 300q94-18 158-55t64-71l0-10q0-58-112-99t-268-41t-268 41t-112 99l0 10q0 34 64 71t158 55l42 48q22 26 70 26l92 0q52 0 70-26z m-54-112l84 0q-92 110-104 126q-14 16-32 16l-102 0q-22 0-32-16l-106-126l84 0l64 66l82 0z" horiz-adv-x="760" />
<glyph glyph-name="doc" unicode="&#xe8d7;" d="m600 800q42 0 71-29t29-71l0-700q0-40-29-70t-71-30l-500 0q-40 0-70 30t-30 70l0 700q0 42 30 71t70 29l500 0z m0-800l0 700l-500 0l0-700l500 0z" horiz-adv-x="700" />
<glyph glyph-name="docs" unicode="&#xe8d8;" d="m970 480q38-10 30-46l-150-556q-4-16-18-23t-30-3l-406 110q-16 4-24 18t-4 28l24 92l-180-48q-40-10-50 26l-160 602q-10 36 28 48l454 122q16 4 30-3t18-23l66-244z m-888 190l144-542l392 106l-144 540z m702-742l132 492l-298 82l76-282q10-34-28-46l-196-52l-26-102z" horiz-adv-x="1001" />
<glyph glyph-name="doc-landscape" unicode="&#xe8d9;" d="m0 600q0 42 30 71t70 29l800 0q42 0 71-29t29-71l0-500q0-40-29-70t-71-30l-800 0q-40 0-70 30t-30 70l0 500z m900 0l-800 0l0-500l800 0l0 500z" horiz-adv-x="1000" />
<glyph glyph-name="doc-text" unicode="&#xe8da;" d="m212 308l0 90l280 0l0-90l-280 0z m388 492q42 0 71-29t29-71l0-700q0-40-29-70t-71-30l-500 0q-40 0-70 30t-30 70l0 700q0 42 30 71t70 29l500 0z m0-800l0 700l-500 0l0-700l500 0z m-110 592l0-88l-280 0l0 88l280 0z m0-392l0-88l-280 0l0 88l280 0z" horiz-adv-x="700" />
<glyph glyph-name="doc-text-inv" unicode="&#xe8db;" d="m600 800q42 0 71-29t29-71l0-700q0-40-29-70t-71-30l-500 0q-40 0-70 30t-30 70l0 700q0 42 30 71t70 29l500 0z m-460-208l0-88l420 0l0 88l-420 0z m420-480l0 88l-420 0l0-88l420 0z m0 196l0 90l-418 0l0-90l418 0z" horiz-adv-x="700" />
<glyph glyph-name="newspaper" unicode="&#xe8dc;" d="m700 800q42 0 71-29t29-71l0-700q0-40-29-70t-71-30l-600 0q-40 0-70 30t-30 70l0 700q0 42 30 71t70 29l600 0z m0-800l0 700l-600 0l0-700l600 0z m-250 250l0-50l-250 0l0 50l250 0z m150 200l0-50l-200 0l0 50l200 0z m-200 50l0 100l200 0l0-100l-200 0z m-50 100l0-200l-150 0l0 200l150 0z m-50-250l0-50l-100 0l0 50l100 0z m50-50l0 50l250 0l0-50l-250 0z m250-150l0-50l-400 0l0 50l400 0z m-100 50l0 50l100 0l0-50l-100 0z" horiz-adv-x="800" />
<glyph glyph-name="book-open" unicode="&#xe8dd;" d="m340 238l0-68l-200 80l0 68z m0 208l0-68l-200 80l0 68z m538 346q22-12 22-42l0-640q0-34-32-46l-398-160q-8-2-10-2t-5-1t-5-1t-5 1t-5 1l-10 2l-398 160q-32 12-32 46l0 640q0 30 22 42q22 16 46 6l382-154l382 154q24 10 46-6z m-478-788l0 560l-320 128l0-560z m420 128l0 560l-320-128l0-560z m-60 186l0-68l-200-80l0 68z m0 208l0-68l-200-80l0 68z" horiz-adv-x="900" />
<glyph glyph-name="book" unicode="&#xe8de;" d="m682 594q18-8 18-28l0-562q0-14-12-25t-28-11q-46 0-46 36l0 522q0 12-12 18l-404 216q-32 10-68-10q-44-20-56-44l408-228q18-8 18-28l0-550q0-22-18-28q-6-4-16-4q-14 0-20 4q-8 6-202 127t-212 131q-26 18-26 34l-6 524q0 28 14 52q28 46 102 77t116 9z" horiz-adv-x="700" />
<glyph glyph-name="folder" unicode="&#xe8df;" d="m954 500q32 0 40-12t6-36l-42-452q-2-24-12-37t-42-13l-806 0q-52 0-56 50l-42 452q-2 24 6 36t40 12l908 0z m-34 110l10-40l-846 0l14 132q4 20 20 34t36 14l164 0q52 0 86-34l30-30q32-36 86-36l340 0q20 0 38-12t22-28z" horiz-adv-x="1001" />
<glyph glyph-name="archive" unicode="&#xe8e0;" d="m840 600l0-50l-696 0l0 50q0 22 13 35t25 15l608 0q6 0 14-1t22-14t14-35z m-148 150q6 0 14-1t22-14t14-35l-498 0q0 22 13 35t25 15l410 0z m248-200q34-32 38-46q6-18 0-54l-76-450q-4-22-20-35t-28-15l-710 0q-52 0-60 50q-6 26-39 223t-39 227q-10 22-3 44t10 26t21 20l10 10l30 30l0-80l836 0l0 80z m-248-270l0 100l-70 0l0-80l-260 0l0 80l-68 0l0-100q0-50 48-50l300 0q22 0 35 12t13 24z" horiz-adv-x="981" />
<glyph glyph-name="box" unicode="&#xe8e1;" d="m870 750q12 0 21-9t9-21l0-120l-900 0l0 120q0 12 9 21t21 9l840 0z m-820-730l0 530l800 0l0-530q0-30-21-50t-49-20l-660 0q-28 0-49 20t-21 50z m250 430l0-100l300 0l0 100l-300 0z" horiz-adv-x="900" />
<glyph glyph-name="rss" unicode="&#xe8e2;" d="m0 730q314 0 537-223t223-537l-118 0q0 266-188 453t-454 187l0 120z m0-238q218 0 371-153t153-369l-118 0q0 166-119 285t-287 119l0 118z m114-296q46 0 80-33t34-81q0-46-34-79t-80-33t-80 33t-34 79q0 48 34 81t80 33z" horiz-adv-x="760" />
<glyph glyph-name="phone" unicode="&#xe8e3;" d="m461 290q162 162 118 206l-8 8q-30 30-41 48t-4 54t49 88q20 24 37 39t35 16t30 1t29-13t24-18t26-25t21-22q48-48-6-194t-204-294q-150-150-295-205t-193-7q-2 2-23 22t-25 25t-18 24t-13 31t2 30t15 35t38 37q42 34 70 47t54 2t35-18t39-37q44-44 208 120z" horiz-adv-x="800" />
<glyph glyph-name="cog" unicode="&#xe8e4;" d="m760 350q0-72 80-122q-12-40-34-82q-70 18-136-44q-54-58-34-136q-40-20-84-36q-46 82-132 82t-132-82q-44 16-84 36q20 80-34 136q-54 54-136 34q-14 26-34 82q82 52 82 132q0 72-82 124q20 56 34 82q74-18 136 44q54 56 34 136q42 22 84 34q46-80 132-80t132 80q42-12 84-34q-20-78 34-136q66-62 136-44q22-42 34-82q-80-50-80-124z m-340-182q76 0 129 53t53 129t-53 130t-129 54t-129-54t-53-130t53-129t129-53z" horiz-adv-x="840" />
<glyph glyph-name="tools" unicode="&#xe8e5;" d="m155 506q-8-8-11-22t-3-25t-2-11q-2-2-17-15t-19-17q-16-14-28 4l-70 76q-11 12 2 24q2 2 18 14t20 16q6 6 27 6t37 14q14 14 18 38t10 30q2 0 9 7t26 22t41 31q134 90 186 96q122 0 148-2q12 0-8-8q-120-52-152-76q-80-56-36-114q34-46 38-48q8-8-2-14q-2-2-38-35t-38-35q-14-8-18-4q-42 48-71 60t-67-12z m286-26l410-476q18-22-2-38l-48-42q-22-14-38 4l-414 472q-8 8 0 20l72 62q12 8 20-2z m554 202q16-104-16-166q-50-88-154-62q-56 12-100-32l-82-78l-68 78l68 70q24 24 31 53t6 65t5 58q12 56 140 112q12 6 18-3t2-15q-12-12-46-80q-14-10-12-35t40-53q58-40 96 22q6 12 26 41t22 33q4 10 13 9t11-17z m-858-684l254 248l76-86l-246-242q-20-20-38-4l-46 46q-22 18 0 38z" horiz-adv-x="1000" />
<glyph glyph-name="share" unicode="&#xe8e6;" d="m650 200q62 0 106-43t44-107q0-62-44-106t-106-44t-106 44t-44 106q0 6 1 14t1 12l-260 156q-42-32-92-32q-62 0-106 44t-44 106t44 106t106 44q54 0 92-30l260 156q0 4-1 12t-1 12q0 62 44 106t106 44t106-43t44-107q0-62-44-106t-106-44q-52 0-90 32l-262-156q2-8 2-26q0-16-2-24l262-156q36 30 90 30z" horiz-adv-x="800" />
<glyph glyph-name="shareable" unicode="&#xe8e7;" d="m340 350q0 68 47 114t113 46t113-46t47-114q0-66-47-113t-113-47t-113 47t-47 113z m-114 60q-14-60-66-60l-160 0l0 120l118 0q40 124 145 202t237 78q164 0 284-116q16-18 16-43t-16-43q-18-16-43-16t-43 16q-78 82-198 82q-100 0-176-62t-98-158z m614-60l160 0l0-120l-118 0q-40-124-144-202t-238-78q-164 0-282 118q-18 18-18 43t18 41q16 18 41 18t43-18q82-82 198-82q100 0 176 63t98 157q12 60 66 60z" horiz-adv-x="1000" />
<glyph glyph-name="basket" unicode="&#xe8e8;" d="m150 0q0 40 30 70t70 30q42 0 71-30t29-70q0-42-29-71t-71-29q-40 0-70 29t-30 71z m500 0q0 40 30 70t70 30q42 0 71-30t29-70q0-42-29-71t-71-29q-40 0-70 29t-30 71z m-322 236q-36-10-34-23t44-13l562 0l0-76q0-20-20-20l-654 0q-20 0-20 20l0 76l-10 46l-98 454l-98 0l0 80q0 20 20 20l156 0q20 0 20-20l0-86l704 0l0-274q0-22-18-26z" horiz-adv-x="900" />
<glyph glyph-name="bag" unicode="&#xe8e9;" d="m835 668q28-26 24-60l-98-648q-8-30-38-30l-586 0q-28 0-40 30q-94 620-96 648q-5 34 22 60q6 6 54 43t56 43q18 16 56 16l480 0q38 0 56-16q78-58 110-86z m-406-436q56 0 98 34t63 89t30 89t13 66l-92 0q-38-188-112-188t-112 188l-92 0q46-278 204-278z m-352 368l704 0l-110 116l-484 0z" horiz-adv-x="859" />
<glyph glyph-name="calendar" unicode="&#xe8ea;" d="m800 700q42 0 71-29t29-71l0-600q0-40-29-70t-71-30l-700 0q-40 0-70 30t-30 70l0 600q0 42 30 71t70 29l46 0l0-100l160 0l0 100l290 0l0-100l160 0l0 100l44 0z m0-700l0 400l-700 0l0-400l700 0z m-540 800l0-170l-70 0l0 170l70 0z m450 0l0-170l-70 0l0 170l70 0z" horiz-adv-x="900" />
<glyph glyph-name="login" unicode="&#xe8eb;" d="m800 800q42 0 71-29t29-71l0-700q0-40-29-70t-71-30l-450 0q-40 0-69 30t-29 70l0 100l98 0l0-100l450 0l0 700l-450 0l0-150l-98 0l0 150q0 42 29 71t69 29l450 0z m-350-670l0 120l-450 0l0 150l450 0l0 120l200-194z" horiz-adv-x="900" />
<glyph glyph-name="logout" unicode="&#xe8ec;" d="m502 0l0 100l98 0l0-100q0-40-29-70t-71-30l-400 0q-40 0-70 30t-30 70l0 700q0 42 30 71t70 29l400 0q42 0 71-29t29-71l0-150l-98 0l0 150l-402 0l0-700l402 0z m398 326l-198-196l0 120l-450 0l0 150l450 0l0 120z" horiz-adv-x="900" />
<glyph glyph-name="mic" unicode="&#xe8ed;" d="m620 488q20 0 20-20l0-138q0-92-69-164t-201-84l0-132l130 0q20 0 20-20l0-60q0-20-20-20l-360 0q-20 0-20 20l0 60q0 20 20 20l130 0l0 132q-132 12-201 84t-69 164l0 138q0 20 20 20l30 0q20 0 20-20l0-138q0-66 59-123t191-57t191 57t59 123l0 138q0 20 20 20l30 0z m-300-238q-80 0-115 25t-35 55l0 158l300 0l0-158q0-30-35-55t-115-25z m150 520l0-212l-300 0l0 212q0 30 35 55t115 25t115-25t35-55z" horiz-adv-x="640" />
<glyph glyph-name="mute" unicode="&#xe8ee;" d="m868 778q16-16 16-36t-16-36l-782-782q-18-14-34-14q-18 0-36 14q-16 14-16 36t16 36l782 782q34 32 70 0z m-216-386l50 50q74-92 101-172t-7-116q-24-24-75-57t-131-71t-161-45t-165 23l278 276q44-32 88-54t67-25t33 1q6 10 2 34t-26 68t-54 88z m-276 62l-270-270q-40 132 28 283t132 215q34 32 105 11t159-85l-52-50q-58 38-105 53t-57 5q-4-8-2-28t19-58t43-76z" horiz-adv-x="884" />
<glyph glyph-name="sound" unicode="&#xe8ef;" d="m176 588q42 42 149-5t217-157t157-217t5-149q-28-28-92-67t-156-78t-194-29t-176 84t-84 176t29 194t78 156t67 92z m464-480q8 10-3 49t-49 101t-96 118q-56 58-118 96t-101 49t-49 3q-8-10 3-49t49-101t94-120q58-56 120-94t101-49t49-3z m6 394q-18 0-34 16q-16 14-16 35t16 35l94 96q36 32 72 0q32-36 0-72l-96-94q-16-16-36-16z m-180 124q-18 10-23 30t5 38l54 96q26 44 68 20q18-10 23-30t-5-38l-54-96q-14-26-42-26q-14 0-26 6z m438-150q10-18 4-38t-24-30l-96-54q-16-8-24-8q-28 0-44 26q-10 18-4 38t24 30l96 54q18 10 38 5t30-23z" horiz-adv-x="910" />
<glyph glyph-name="volume" unicode="&#xe8f0;" d="m896 180q0-34-24-57t-56-23l-780 0q-22 0-31 5t-3 15t24 20l802 452q28 18 48 7t20-45l0-374z" horiz-adv-x="896" />
<glyph glyph-name="clock" unicode="&#xe8f1;" d="m460 810q190 0 325-135t135-325t-135-325t-325-135t-325 135t-135 325t135 325t325 135z m0-820q150 0 255 106t105 254q0 150-105 255t-255 105q-148 0-254-105t-106-255q0-148 106-254t254-106z m36 620l0-244l150-150l-50-50l-170 170l0 274l70 0z" horiz-adv-x="920" />
<glyph glyph-name="hourglass" unicode="&#xe8f2;" d="m560 622q0-44-48-96t-97-99t-49-77t49-76t97-97t48-97l0-118q0-34-86-73t-194-39t-194 39t-86 73l0 118q0 46 48 97t97 97t49 76t-49 77t-97 99t-48 96l0 118q0 32 87 71t193 39t193-39t87-71l0-118z m-482 112l-18-14q-4-8 4-14q92-52 216-52q132 0 220 50q14 10-16 30q-96 54-202 54q-120 0-204-54z m228-384q0 18 4 33t18 33t20 25t31 31t29 28q92 92 92 122l2 50q-100-54-222-54t-222 54l4-50q0-32 90-122q6-6 22-21t23-22l19-19t17-21t11-20t9-23t3-24q0-10-1-19t-6-18t-8-16t-11-17l-12-15t-15-16t-16-15t-18-16t-17-16q-90-90-90-122l0-66q8 4 66 23t92 43t34 58q0 30 26 30t26-30q0-34 33-58t94-43t67-23l0 66q0 30-92 122q-4 4-21 20t-22 21t-18 19t-18 22t-12 20t-9 23t-2 23z" horiz-adv-x="560" />
<glyph glyph-name="lamp" unicode="&#xe8f3;" d="m209-110l0 104l282 0l0-104q-70-42-142-40q-70-2-140 40z m276 164l-270 0q0 72-36 140t-78 113t-74 112t-26 139q8 120 94 206t254 86q170 0 255-86t95-206q4-60-16-113t-52-96t-65-85t-57-96t-24-114z m-378 496q-4-4 0-20t2-20t5-19t6-18t8-18t11-19t13-19t14-19t15-21t16-23q88-122 112-212l82 0q24 94 112 212q4 6 25 35t25 36t17 29t16 33t6 28t1 35q-16 196-244 196q-226 0-242-196z" horiz-adv-x="700" />
<glyph glyph-name="light-down" unicode="&#xe8f4;" d="m350 510q68 0 114-47t46-113q0-68-46-114t-114-46q-66 0-113 46t-47 114q0 66 47 113t113 47z m0-264q44 0 73 30t29 74q0 42-29 72t-73 30q-42 0-72-30t-30-72q0-44 30-74t72-30z m-300 144q20 0 35-12t15-28q0-40-50-40t-50 40q0 16 15 28t35 12z m546 204q28-28-8-64q-14-14-33-16t-29 10q-12 12-10 31t16 33q36 34 64 6z m54-204q20 0 35-12t15-28q0-40-50-40q-48 0-48 40q0 16 14 28t34 12z m-300-290q16 0 28-15t12-35t-12-35t-28-15t-28 15t-12 35t12 35t28 15z m-238 62q36 36 64 8t-8-64q-14-14-33-16t-29 8q-30 28 6 64z m-10 430q28 28 64-8q14-14 16-33t-8-29q-30-28-64 6q-36 36-8 64z m432-484q-34 36-6 64t64-8q14-14 16-33t-10-29q-30-28-64 6z m-184 492q-16 0-28 15t-12 35t12 35t28 15t28-15t12-35t-12-35t-28-15z" horiz-adv-x="700" />
<glyph glyph-name="light-up" unicode="&#xe8f5;" d="m950 390q20 0 35-12t15-28q0-40-50-40l-48 0q-50 0-50 40q0 16 15 28t35 12l48 0z m-450 234q114 0 195-80t81-194q0-116-81-196t-195-80t-194 80t-80 196q0 114 80 194t194 80z m0-474q82 0 141 58t59 142q0 82-59 141t-141 59t-141-59t-59-141q0-84 59-142t141-58z m-350 200q0-40-50-40l-50 0q-50 0-50 40q0 16 15 28t35 12l50 0q20 0 35-12t15-28z m350 350q-16 0-28 15t-12 35l0 50q0 20 12 35t28 15t28-15t12-35l0-50q0-20-12-35t-28-15z m0-700q16 0 28-15t12-35l0-50q0-20-12-35t-28-15t-28 15t-12 35l0 50q0 20 12 35t28 15z m368 660l-34-34q-34-34-64-8q-28 28 8 64q4 6 34 36q36 34 64 6t-8-64z m-700-588q14 16 33 18t29-10q12-12 10-31t-16-33l-36-36q-14-14-33-16t-29 10q-30 28 6 64q6 4 36 34z m20 646l36-36q36-36 6-64q-10-10-29-8t-33 16q-30 30-36 34q-14 14-16 33t10 31q10 12 29 10t33-16z m590-702q-36 36-8 64t64-8l34-34q36-36 8-64t-64 6q-30 30-34 36z" horiz-adv-x="1000" />
<glyph glyph-name="adjust" unicode="&#xe8f6;" d="m950 390q20 0 35-12t15-28q0-40-50-40l-48 0q-50 0-50 40q0 16 15 28t35 12l48 0z m-450 234q114 0 195-80t81-194q0-116-81-196t-195-80t-194 80t-80 196q0 114 80 194t194 80z m6-474l0 400q-86 0-146-59t-60-141q0-84 60-142t146-58z m-356 200q0-40-50-40l-50 0q-50 0-50 40q0 16 15 28t35 12l50 0q20 0 35-12t15-28z m350 350q-16 0-28 15t-12 35l0 50q0 20 12 35t28 15t28-15t12-35l0-50q0-20-12-35t-28-15z m0-700q16 0 28-15t12-35l0-50q0-20-12-35t-28-15t-28 15t-12 35l0 50q0 20 12 35t28 15z m368 660l-34-34q-34-34-64-8q-28 28 8 64q4 6 34 36q36 34 64 6t-8-64z m-700-588q14 16 33 18t29-10q12-12 10-31t-16-33l-36-36q-14-14-33-16t-29 10q-30 28 6 64q6 4 36 34z m20 646l36-36q36-36 6-64q-10-10-29-8t-33 16q-30 30-36 34q-14 14-16 33t10 31q10 12 29 10t33-16z m590-702q-36 36-8 64t64-8l34-34q36-36 8-64t-64 6q-30 30-34 36z" horiz-adv-x="1000" />
<glyph glyph-name="block" unicode="&#xe8f7;" d="m480 830q200 0 340-140t140-340q0-198-140-339t-340-141q-198 0-339 141t-141 339q0 200 141 340t339 140z m258-220z m-622-260q0-132 82-230l514 514q-100 82-232 82q-152 0-258-107t-106-259z m106-258z m258-106q152 0 259 107t107 257q0 130-82 232l-514-514q98-82 230-82z" horiz-adv-x="960" />
<glyph glyph-name="resize-full" unicode="&#xe8f8;" d="m476 746l316 0l0-316l-100 124l-146-152l-100 100l152 146z m-230-444l100-100l-152-146l122-100l-316 0l0 316l100-122z" horiz-adv-x="792" />
<glyph glyph-name="resize-small" unicode="&#xe8f9;" d="m156 146l-106 100l296 0l0-296l-100 106l-146-156l-100 100z m744 554l-154-144l104-100l-294 0l0 294l100-104l144 154z" horiz-adv-x="900" />
<glyph glyph-name="popup" unicode="&#xe8fa;" d="m700 750q42 0 71-29t29-71l0-400q0-40-29-70t-71-30l-400 0q-40 0-70 30t-30 70l0 402q0 40 29 69t71 29l400 0z m0-500l0 400l-400 0l0-400l400 0z m-600 100l0-300l300 0l0-100l-300 0q-40 0-70 30t-30 70l0 300l100 0z" horiz-adv-x="800" />
<glyph glyph-name="publish" unicode="&#xe8fb;" d="m900 800q42 0 71-30t29-70l0-600q0-42-29-71t-71-29l-198 0l0 98l200 0l0 462l-802 0l0-462l200 0l0-98l-200 0q-40 0-70 29t-30 71l0 600q0 40 30 70t70 30l800 0z m-770-168q38 0 38 38q0 16-11 26t-27 10t-27-11t-11-25q0-16 11-27t27-11z m100 0q38 0 38 38q0 16-11 26t-27 10t-27-11t-11-25q0-16 11-27t27-11z m672 6l0 62l-602 0l0-62l602 0z m-404-198l242-240l-150 0l0-300l-184 0l0 300l-150 0z" horiz-adv-x="1000" />
<glyph glyph-name="window" unicode="&#xe8fc;" d="m900 750q42 0 71-30t29-70l0-600q0-42-29-71t-71-29l-800 0q-40 0-70 29t-30 71l0 600q0 40 30 70t70 30l800 0z m-670-94q-16 0-27-11t-11-25q0-16 11-27t27-11q38 0 38 38q0 16-11 26t-27 10z m-138-36q0-16 11-27t27-11q38 0 38 38q0 16-11 26t-27 10t-27-11t-11-25z m810-570l0 460l-802 0l0-460l802 0z m0 540l0 60l-602 0l0-60l602 0z" horiz-adv-x="1000" />
<glyph glyph-name="arrow-combo" unicode="&#xe8fd;" d="m230 850l230-364l-460 0z m0-1000l-230 366l460 0z" horiz-adv-x="460" />
<glyph glyph-name="down-circled" unicode="&#xe8fe;" d="m460 810q190 0 325-135t135-325t-135-325t-325-135t-325 135t-135 325t135 325t325 135z m0-820q148 0 254 106t106 254q0 150-106 255t-254 105t-254-105t-106-255q0-148 106-254t254-106z m90 554l0-206l112 0l-202-190l-202 190l112 0l0 206l180 0z" horiz-adv-x="920" />
<glyph glyph-name="left-circled" unicode="&#xe8ff;" d="m920 350q0-190-135-325t-325-135t-325 135t-135 325q0 192 135 326t325 134t325-134t135-326z m-820 0q0-148 106-254t254-106t254 106t106 254q0 150-106 255t-254 105t-254-105t-106-255z m552-90l-204 0l0-112l-190 202l190 204l0-114l204 0l0-180z" horiz-adv-x="920" />
<glyph glyph-name="right-circled" unicode="&#xe900;" d="m0 350q0 190 135 325t325 135t325-135t135-325t-135-325t-325-135t-325 135t-135 325z m820 0q0 150-105 255t-255 105q-148 0-254-105t-106-255q0-148 106-254t254-106q150 0 255 106t105 254z m-552 90l204 0l0 114l190-204l-190-202l0 112l-204 0l0 180z" horiz-adv-x="920" />
<glyph glyph-name="up-circled" unicode="&#xe901;" d="m460-110q-190 0-325 135t-135 325q0 192 135 326t325 134t325-134t135-326q0-190-135-325t-325-135z m0 820q-148 0-254-105t-106-255q0-148 106-254t254-106q150 0 255 106t105 254q0 150-105 255t-255 105z m-90-552l0 204l-112 0l202 192l202-192l-112 0l0-204l-180 0z" horiz-adv-x="920" />
<glyph glyph-name="down-open" unicode="&#xe902;" d="m564 422l-234-224q-18-18-40-18t-40 18l-234 224q-16 16-16 41t16 41q38 38 78 0l196-188l196 188q40 38 78 0q16-16 16-41t-16-41z" horiz-adv-x="580" />
<glyph glyph-name="left-open" unicode="&#xe903;" d="m242 626q14 16 39 16t41-16q38-36 0-80l-186-196l186-194q38-44 0-80q-16-16-40-16t-40 16l-226 236q-16 16-16 38q0 24 16 40q206 214 226 236z" horiz-adv-x="341" />
<glyph glyph-name="right-open" unicode="&#xe904;" d="m98 626l226-236q16-16 16-40q0-22-16-38l-226-236q-16-16-40-16t-40 16q-36 36 0 80l186 194l-186 196q-36 44 0 80q16 16 41 16t39-16z" horiz-adv-x="340" />
<glyph glyph-name="up-open" unicode="&#xe905;" d="m564 280q16-16 16-41t-16-41q-38-38-78 0l-196 188l-196-188q-40-38-78 0q-16 16-16 41t16 41l234 224q16 16 40 16t40-16z" horiz-adv-x="580" />
<glyph glyph-name="down-open-mini" unicode="&#xe906;" d="m405 470q22 26 48 0q26-22 0-48l-196-192q-22-22-48 0l-196 192q-26 26 0 48q24 24 50 0l170-156z" horiz-adv-x="466" />
<glyph glyph-name="left-open-mini" unicode="&#xe853;" d="m252 180q26-26 0-48q-26-26-48 0l-192 194q-24 24 0 50l192 194q22 26 48 0q26-22 0-48l-156-172z" horiz-adv-x="265" />
<glyph glyph-name="right-open-mini" unicode="&#xe854;" d="m13 180l158 170l-158 172q-26 26 0 48q26 26 48 0l192-194q24-26 0-50l-192-194q-22-26-48 0q-26 22 0 48z" horiz-adv-x="265" />
<glyph glyph-name="up-open-mini" unicode="&#xe855;" d="m62 230q-26-22-50 0q-24 24 0 50l196 190q26 26 48 0l196-190q24-26 0-50q-24-22-50 0l-170 158z" horiz-adv-x="464" />
<glyph glyph-name="down-open-big" unicode="&#xe856;" d="m63 570l370-356l372 356q22 26 48 0q26-22 0-48l-396-392q-22-22-48 0l-396 392q-26 26 0 48q24 24 50 0z" horiz-adv-x="866" />
<glyph glyph-name="left-open-big" unicode="&#xe857;" d="m452-20q26-26 0-48q-26-26-48 0l-392 394q-24 24 0 50l392 394q22 26 48 0q26-22 0-48l-358-372z" horiz-adv-x="465" />
<glyph glyph-name="right-open-big" unicode="&#xe858;" d="m13-20l358 370l-358 372q-26 26 0 48q26 26 48 0l392-394q24-26 0-50l-392-394q-22-26-48 0q-26 22 0 48z" horiz-adv-x="465" />
<glyph glyph-name="up-open-big" unicode="&#xe859;" d="m804 130l-372 358l-370-358q-26-22-50 0q-24 24 0 50l396 390q26 26 48 0l396-390q24-26 0-50q-26-22-48 0z" horiz-adv-x="864" />
<glyph glyph-name="down" unicode="&#xe85a;" d="m660 366l-330-380l-330 380l192 0l0 350l276 0l0-350l192 0z" horiz-adv-x="660" />
<glyph glyph-name="left" unicode="&#xe85b;" d="m378 20l-378 330l378 330l0-190l352 0l0-278l-352 0l0-192z" horiz-adv-x="730" />
<glyph glyph-name="right" unicode="&#xe85c;" d="m350 680l380-330l-380-330l0 192l-350 0l0 278l350 0l0 190z" horiz-adv-x="730" />
<glyph glyph-name="up" unicode="&#xe85d;" d="m660 336l-192 0l0-350l-276 0l0 350l-192 0l330 380z" horiz-adv-x="660" />
<glyph glyph-name="down-dir" unicode="&#xe85e;" d="m460 550l-230-400l-230 400l460 0z" horiz-adv-x="460" />
<glyph glyph-name="left-dir" unicode="&#xe85f;" d="m400 580l0-460l-400 230z" horiz-adv-x="400" />
<glyph glyph-name="right-dir" unicode="&#xe860;" d="m0 580l400-230l-400-230l0 460z" horiz-adv-x="400" />
<glyph glyph-name="up-dir" unicode="&#xe861;" d="m0 150l230 400l230-400l-460 0z" horiz-adv-x="460" />
<glyph glyph-name="down-bold" unicode="&#xe862;" d="m760 366l-380-380l-380 380l192 0l0 350l376 0l0-350l192 0z" horiz-adv-x="760" />
<glyph glyph-name="left-bold" unicode="&#xe863;" d="m378 730l0-190l352 0l0-378l-352 0l0-192l-378 380z" horiz-adv-x="730" />
<glyph glyph-name="right-bold" unicode="&#xe864;" d="m350 730l380-380l-380-380l0 192l-350 0l0 378l350 0l0 190z" horiz-adv-x="730" />
<glyph glyph-name="up-bold" unicode="&#xe865;" d="m760 336l-192 0l0-350l-376 0l0 350l-192 0l380 380z" horiz-adv-x="760" />
<glyph glyph-name="down-thin" unicode="&#xe866;" d="m500 100l-250-240l-250 240l162 0l0 740l176 0l0-740l162 0z" horiz-adv-x="500" />
<glyph glyph-name="left-thin" unicode="&#xe867;" d="m240 100l-240 250l240 250l0-160l740 0l0-178l-740 0l0-162z" horiz-adv-x="980" />
<glyph glyph-name="note-beamed" unicode="&#xe907;" d="m206 714l534 116l0-704q2-42-30-81t-86-59q-64-24-110-8t-62 64q-18 48 7 97t85 73q52 20 106 10l0 376l-354-82l0-490q0-42-32-81t-86-59q-64-22-109-7t-61 63q-18 48 6 97t84 73q54 20 108 10l0 592z" horiz-adv-x="740" />
<glyph glyph-name="up-thin" unicode="&#xe869;" d="m500 602l-162 0l0-742l-176 0l0 742l-162 0l250 238z" horiz-adv-x="500" />
<glyph glyph-name="ccw" unicode="&#xe86a;" d="m532 736q170 0 289-120t119-290t-119-290t-289-120q-142 0-252 88l70 74q84-60 182-60q126 0 216 90t90 218t-90 218t-216 90q-124 0-214-87t-92-211l142 0l-184-204l-184 204l124 0q2 166 122 283t286 117z" horiz-adv-x="940" />
<glyph glyph-name="cw" unicode="&#xe86b;" d="m408 760q168 0 287-116t123-282l122 0l-184-206l-184 206l144 0q-4 124-94 210t-214 86q-126 0-216-90t-90-218q0-126 90-216t216-90q104 0 182 60l70-76q-110-88-252-88q-168 0-288 120t-120 290t120 290t288 120z" horiz-adv-x="940" />
<glyph glyph-name="arrows-ccw" unicode="&#xe86c;" d="m186 140l116 116l0-292l-276 16l88 86q-116 122-114 290t120 288q100 100 240 116l4-102q-100-16-172-88q-88-88-90-213t84-217z m332 598l276-16l-88-86q116-122 114-290t-120-288q-96-98-240-118l-2 104q98 16 170 88q88 88 90 213t-84 217l-114-116z" horiz-adv-x="820" />
<glyph glyph-name="level-down" unicode="&#xe86d;" d="m100 200q-42 0-71 30t-29 70l0 350l140 0l0-310l364 0l0 150l240-220l-240-220l0 150l-404 0z" horiz-adv-x="744" />
<glyph glyph-name="level-up" unicode="&#xe86e;" d="m200 350l0-90l-200 160l200 170l0-100l550 0q40 0 70-29t30-71l0-280l-140 0l0 240l-510 0z" horiz-adv-x="850" />
<glyph glyph-name="shuffle" unicode="&#xe86f;" d="m754 516q-54 0-105-32t-80-66t-83-104q-48-62-75-94t-78-77t-107-66t-122-21l-104 0l0 140l104 0q54 0 106 32t81 66t83 104q62 82 101 126t116 88t163 44l36 0l0 120l210-180l-210-180l0 100l-36 0z m-484-88q-74 78-166 78l-104 0l0 140l104 0q140 0 254-108q-14-16-37-45t-27-33q-8-12-24-32z m520-242l0 100l210-180l-210-180l0 120l-36 0q-140 0-260 116q46 58 72 92q0 2 6 9t8 11q84-88 174-88l36 0z" horiz-adv-x="1000" />
<glyph glyph-name="loop" unicode="&#xe870;" d="m800 540q42 0 71-29t29-71l0-290q0-40-29-70t-71-30l-700 0q-40 0-70 30t-30 70l0 290q0 42 30 71t70 29l250 0l0 110l200-180l-200-180l0 110l-210 0l0-210l620 0l0 210l-150 0l0 140l190 0z" horiz-adv-x="900" />
<glyph glyph-name="switch" unicode="&#xe871;" d="m700 592l0-140l-500 0l0-90l-200 160l200 170l0-100l500 0z m300-420l-200-160l0 90l-500 0l0 140l500 0l0 100z" horiz-adv-x="1000" />
<glyph glyph-name="play" unicode="&#xe872;" d="m486 376q14-10 14-26q0-14-14-24l-428-266q-24-16-41-6t-17 40l0 514q0 30 17 40t41-6z" horiz-adv-x="500" />
<glyph glyph-name="stop" unicode="&#xe873;" d="m526 650q74 0 74-64l0-470q0-66-74-66l-450 0q-76 0-76 66l0 470q0 36 18 50t58 14l450 0z" horiz-adv-x="600" />
<glyph glyph-name="pause" unicode="&#xe874;" d="m440 700q90 0 90-64l0-570q0-66-90-66t-90 66l0 570q0 64 90 64z m-350 0q90 0 90-64l0-570q0-66-90-66t-90 66l0 570q0 64 90 64z" horiz-adv-x="530" />
<glyph glyph-name="record" unicode="&#xe875;" d="m350 700q146 0 248-102t102-248q0-144-102-247t-248-103t-248 103t-102 247q0 146 102 248t248 102z" horiz-adv-x="700" />
<glyph glyph-name="to-end" unicode="&#xe876;" d="m412 374q14-10 14-24q0-12-14-22l-362-228q-22-14-36-5t-14 35l0 442q0 26 14 35t36-5z m114 268q74 0 74-58l0-466q0-58-74-58q-76 0-76 58l0 466q0 58 76 58z" horiz-adv-x="600" />
<glyph glyph-name="to-start" unicode="&#xe877;" d="m174 350q0 14 14 24l364 228q20 14 34 5t14-35l0-442q0-26-14-35t-34 5l-364 228q-14 10-14 22z m-174 234q0 58 76 58q74 0 74-58l0-466q0-58-74-58q-76 0-76 58l0 466z" horiz-adv-x="600" />
<glyph glyph-name="fast-forward" unicode="&#xe878;" d="m866 374q14-10 14-24t-14-22l-372-248q-22-14-37-6t-15 36l0 482q0 28 15 36t37-6z m-454 0q14-10 14-24t-14-22l-360-248q-20-14-36-6t-16 36l0 482q0 28 16 36t36-6z" horiz-adv-x="880" />
<glyph glyph-name="fast-backward" unicode="&#xe879;" d="m0 350q0 14 14 24l374 248q20 14 36 6t16-36l0-482q0-28-16-36t-36 6l-374 248q-14 8-14 22z m454 0q0 14 14 24l360 248q20 14 36 6t16-36l0-482q0-28-16-36t-36 6l-360 248q-14 8-14 22z" horiz-adv-x="880" />
<glyph glyph-name="progress-0" unicode="&#xe87a;" d="m1000 450l0-250q0-42-29-71t-71-29l-800 0q-40 0-70 29t-30 71l0 300q0 40 30 70t70 30l800 0q42 0 71-30t29-70l0-50z m-100-250l0 300l-800 0l0-300l800 0z" horiz-adv-x="1000" />
<glyph glyph-name="progress-1" unicode="&#xe87b;" d="m1000 450l0-250q0-42-29-71t-71-29l-800 0q-40 0-70 29t-30 71l0 300q0 40 30 70t70 30l800 0q42 0 71-30t29-70l0-50z m-100-250l0 300l-800 0l0-300l800 0z m-750 50l0 198l200 0l0-198l-200 0z" horiz-adv-x="1000" />
<glyph glyph-name="progress-2" unicode="&#xe87c;" d="m1000 450l0-250q0-42-29-71t-71-29l-800 0q-40 0-70 29t-30 71l0 300q0 40 30 70t70 30l800 0q42 0 71-30t29-70l0-50z m-100-250l0 300l-800 0l0-300l800 0z m-750 50l0 198l200 0l0-198l-200 0z m250 0l0 198l200 0l0-198l-200 0z" horiz-adv-x="1000" />
<glyph glyph-name="progress-3" unicode="&#xe87d;" d="m1000 450l0-250q0-42-29-71t-71-29l-800 0q-40 0-70 29t-30 71l0 300q0 40 30 70t70 30l800 0q42 0 71-30t29-70l0-50z m-100-250l0 300l-800 0l0-300l800 0z m-750 50l0 198l200 0l0-198l-200 0z m250 0l0 198l200 0l0-198l-200 0z m250 198l200 0l0-198l-200 0l0 198z" horiz-adv-x="1000" />
<glyph glyph-name="target" unicode="&#xe87e;" d="m430 780q178 0 304-126t126-304t-126-304t-304-126t-304 126t-126 304t126 304t304 126z m36-778q124 14 212 102t100 212l-192 0l0 70l192 0q-12 124-100 212t-212 102l0-194l-70 0l0 194q-124-14-213-102t-101-212l194 0l0-70l-194 0q12-124 101-212t213-102l0 194l70 0l0-194z" horiz-adv-x="860" />
<glyph glyph-name="palette" unicode="&#xe87f;" d="m857 622q72-48 101-110t20-104t-35-48q-16-4-54 10t-80 10t-80-46q-30-46-21-75t34-65t23-50q-2-26-36-63t-126-74t-216-37q-186 0-291 101t-95 245q8 118 104 235t216 151q290 84 536-80z m-318-466q30 0 52 22t22 54t-22 53t-52 21q-32 0-54-21t-22-53t22-54t54-22z" horiz-adv-x="980" />
<glyph glyph-name="list" unicode="&#xe880;" d="m100 200q20 0 35-15t15-35t-15-35t-35-15l-50 0q-20 0-35 15t-15 35t14 35t36 15l50 0z m0 200q20 0 35-15t15-35t-15-35t-35-15l-50 0q-20 0-35 15t-15 35t14 35t36 15l50 0z m0 200q20 0 35-15t15-35t-15-35t-35-15l-50 0q-20 0-35 15t-15 35t14 35t36 15l50 0z m200-100q-20 0-35 15t-15 35t15 35t35 15l350 0q22 0 36-15t14-35t-15-35t-35-15l-350 0z m350-100q22 0 36-15t14-35t-15-35t-35-15l-350 0q-20 0-35 15t-15 35t15 35t35 15l350 0z m0-200q22 0 36-15t14-35t-15-35t-35-15l-350 0q-20 0-35 15t-15 35t15 35t35 15l350 0z" horiz-adv-x="700" />
<glyph glyph-name="list-add" unicode="&#xe881;" d="m350 400q22 0 36-15t14-35t-15-35t-35-15l-300 0q-20 0-35 15t-15 35t14 35t36 15l300 0z m0-200q22 0 36-15t14-35t-15-35t-35-15l-300 0q-20 0-35 15t-15 35t14 35t36 15l300 0z m620 200q30 0 30-50t-30-50l-170 0l0-170q0-30-50-30t-50 30l0 170l-164 0q-30 0-30 50t30 50l164 0l0 170q0 30 50 30t50-30l0-170l170 0z m-620 200q22 0 36-15t14-35t-15-35t-35-15l-300 0q-20 0-35 15t-15 35t14 35t36 15l300 0z" horiz-adv-x="1000" />
<glyph glyph-name="signal" unicode="&#xe882;" d="m490 150q42 0 71-30t29-70q0-42-29-71t-71-29q-40 0-69 29t-29 71q0 40 29 70t69 30z m-210 112q88 88 210 88t210-88l-70-72q-58 58-140 58t-140-58z m-140 140q146 148 351 148t349-148l-70-70q-116 118-279 118t-281-118z m-140 142q204 206 491 206t489-206l-70-70q-174 176-420 176t-420-176z" horiz-adv-x="980" />
<glyph glyph-name="trophy" unicode="&#xe883;" d="m510 134l0-66q70-8 116-32t46-56q0-36-65-63t-157-27q-90 0-156 27t-66 63q0 32 46 56t118 32l0 66q0 50-33 84t-113 88q-56 36-87 61t-75 72t-64 108t-20 137q0 14 11 24t25 10l172 0q48 92 242 92q196 0 244-92l170 0q14 0 25-10t11-24q0-76-20-137t-64-108t-75-72t-87-61q-78-52-111-87t-33-85z m138 252q80 56 126 114t54 148l-126 0q-6-158-54-262z m-198 364q-62 0-108-15t-64-32t-18-29q0-14 18-31t64-32t108-15t108 15t64 32t18 31q0 12-18 29t-64 32t-108 15z m-378-102q8-90 54-148t126-114q-48 104-54 262l-126 0z" horiz-adv-x="900" />
<glyph glyph-name="battery" unicode="&#xe884;" d="m770 350q0-98 36-157t78-59l66 0q-30-46-64-65t-118-19l-500 0q-130 0-199 94t-69 206q0 110 69 205t199 95l500 0q84 0 118-19t64-65l-66 0q-42 0-78-60t-36-156z m-136-90q10 12-8 26q-136 134-178 164q-16 10-26 13t-18-5t-10-12t-8-18l-22-56l-148 66q-26 12-34 0q-8-14 8-28q136-132 180-162q34-16 42-11t18 31l24 58l146-68q26-12 34 2z m310 192q22 0 39-27t17-71t-17-72t-39-28l-38 0q-22 0-38 28t-16 72t16 71t38 27l38 0z" horiz-adv-x="1000" />
<glyph glyph-name="back-in-time" unicode="&#xe885;" d="m532 760q170 0 289-120t119-290t-119-290t-289-120q-138 0-252 88l70 76q82-60 182-60q126 0 216 90t90 216q0 128-90 218t-216 90q-124 0-213-86t-93-210l142 0l-184-206l-184 206l124 0q4 166 123 282t285 116z m-36-190l70 0l0-204l130-130l-50-50l-150 150l0 234z" horiz-adv-x="940" />
<glyph glyph-name="monitor" unicode="&#xe886;" d="m900 790q42 0 71-30t29-70l0-550q0-42-29-77t-69-43l-218-44l86-38q50-28-20-28l-500 0q-98 0 32 52l36 14l-220 44q-40 8-69 43t-29 77l0 550q0 40 30 70t70 30l800 0z m0-646l0 556l-800 0l0-556l800 0z" horiz-adv-x="1000" />
<glyph glyph-name="mobile" unicode="&#xe887;" d="m480 840q42 0 71-29t29-71l0-780q0-40-29-70t-71-30l-380 0q-40 0-70 30t-30 70l0 780q0 42 30 71t70 29l380 0z m-190-940q30 0 50 15t20 35q0 22-20 36t-50 14q-28 0-49-15t-21-35t21-35t49-15z m210 150l0 660l-420 0l0-660l420 0z" horiz-adv-x="580" />
<glyph glyph-name="network" unicode="&#xe888;" d="m224 504q-22 0-42-10q-48 52-92 128q54 74 128 118q92-38 152-82q-6-16-6-32q0-6 4-22q-62-48-116-104q-16 4-28 4z m-98-98q0-34 20-60q-60-114-80-232q-66 106-66 236q0 110 50 206q38-62 84-112q-8-24-8-38z m336 318q-28 0-50-14q-58 42-114 70q84 30 162 30q120 0 230-62q-76-14-162-50q-26 26-66 26z m146-460q-160 24-290 112q4 20 4 30q0 24-14 52q38 44 98 90q26-20 56-20q14 0 38 8q94-108 134-240q-16-14-26-32z m128-132q38 14 54 60q58 4 108 18q-46-146-166-232q6 48 6 98q0 10-1 28t-1 28z m-150 66q-190-96-304-272q-90 36-158 110q12 144 80 274q6-2 20-2q30 0 52 14q142-98 310-124z m184 492q150-136 150-340q0-22-4-66q-64-18-130-24q-24 56-88 60q-48 146-148 264q10 20 10 42l0 10q100 42 210 54z m-136-544q14-10 32-18q2-18 2-52q0-80-14-144q-86-42-194-42q-58 0-112 12q110 160 286 244z" horiz-adv-x="920" />
<glyph glyph-name="cd" unicode="&#xe889;" d="m460 810q190 0 325-135t135-325t-135-325t-325-135t-325 135t-135 325t135 325t325 135z m0-610q62 0 106 44t44 106q0 64-43 107t-107 43q-62 0-106-44t-44-106t44-106t106-44z" horiz-adv-x="920" />
<glyph glyph-name="inbox" unicode="&#xe88a;" d="m967 398q40-42 30-72l-28-154q-4-20-22-33t-40-13l-816 0q-22 0-40 13t-22 33l-28 154q-8 32 32 72q8 10 36 38t68 67t52 51q22 22 52 22l516 0q30 0 52-22q16-16 53-52t67-65t38-39z m-266-32l178 0l-102 114l-556 0l-102-114l178 0q8 0 12-8l40-100l300 0l40 100q4 8 12 8z" horiz-adv-x="999" />
<glyph glyph-name="install" unicode="&#xe88b;" d="m884 306q24-52 14-96l-34-184q-2-20-19-35t-39-15l-712 0q-22 0-39 15t-19 35l-34 184q-8 50 14 96l158 374q22 46 72 46l104 0l-20-204l-134 0l254-210l256 210l-136 0l-18 204l102 0q50 0 74-46z m-68-132q2 22-10 38t-34 16l-644 0q-22 0-34-16t-10-38l14-74q2-22 19-37t37-15l592 0q22 0 39 15t19 37z" horiz-adv-x="901" />
<glyph glyph-name="globe" unicode="&#xe88c;" d="m480 830q200 0 340-141t140-339q0-200-140-340t-340-140q-198 0-339 140t-141 340q0 198 141 339t339 141z m410-480q0 132-78 239t-202 149q-18-24-16-32q4-38 18-51t30-7l32 12t20 2q22-24 0-47t-45-56t-1-77q34-64 96-64q28-2 43-36t17-66q10-80-14-140q-22-44 14-76q86 112 86 250z m-466 404q-112-14-199-84t-127-174q6 0 22-2t28-3t26-4t24-8t12-13q4-12-14-45t-18-61q0-30 38-56t38-46q0-28 8-68t8-44q0-12 36-54t52-42q10 0 11 22t-2 54t-3 40q0 32 14 74q12 42 59 70t55 46q16 34 9 61t-17 43t-34 28t-41 17t-37 9t-22 4q-16 6-42 7t-36-3t-27 11t-17 29q0 10 15 27t35 37t28 30q8 14 17 21t22 16t27 21q4 4 25 17t27 23z m-72-794q66-20 128-20q128 0 226 68q-26 44-118 34q-24-2-65-17t-47-17q-74-16-76-16q-12-2-26-14t-22-18z" horiz-adv-x="960" />
<glyph glyph-name="cloud" unicode="&#xe88d;" d="m760 494q100 0 170-68t70-166t-70-166t-170-68l-578 0q-74 0-128 52t-54 124q0 74 53 126t129 52q2 0 10-1t10-1q-2 12-2 38q0 108 78 184t188 76q90 0 160-52t94-134q28 4 40 4z" horiz-adv-x="1000" />
<glyph glyph-name="cloud-thunder" unicode="&#xe88e;" d="m760 494q100 0 170-68t70-166t-70-166t-170-68l-578 0q-74 0-128 52t-54 124q0 74 53 126t129 52q2 0 10-1t10-1q-2 12-2 38q0 108 78 184t188 76q90 0 160-52t94-134q28 4 40 4z m-192-216q14 16 14 30q0 20-30 32l-4 0q-26 14-38 16l50 116q6 0 6 20q0 14-8 18q-16 10-34-8q-2-2-30-32t-61-66t-45-52q-12-18-12-30q0-22 30-30l4-2q8-4 38-16l-52-114l-2-8q-2-8-2-14q0-10 8-18q18-10 34 10q100 100 134 148z" horiz-adv-x="1000" />
<glyph glyph-name="flash" unicode="&#xe88f;" d="m40-100q-4 4 35 94t79 182t38 98t-94 45t-98 55q-4 12 84 120t180 209t96 97q6-4-74-186t-78-186t95-43t97-57q4-20-174-227t-186-201z" horiz-adv-x="400" />
<glyph glyph-name="moon" unicode="&#xe890;" d="m524 238q106 106 125 252t-53 270q52-26 96-72q128-128 128-309t-128-309t-310-128t-310 128q-40 40-72 94q124-70 271-51t253 125z" horiz-adv-x="820" />
<glyph glyph-name="flight" unicode="&#xe891;" d="m268-120l124 400l-180 0l-112-100l-100 0l80 170l-80 170l100 0l112-100l180 0l-124 400l100 0l224-400l274 0t36-4t46-11t36-21t16-34q0-32-38-49t-74-19l-38-2l-258 0l-224-400l-100 0z" horiz-adv-x="1000" />
<glyph glyph-name="paper-plane" unicode="&#xe892;" d="m894 720q14 4 22-3t4-19q-2-6-72-310t-74-316q-2-14-14-19t-24 1l-248 134l-30 16l22 26q388 420 394 426q4 4-1 9t-9 1l-550-402l-112 44l-190 76q-12 4-12 12t12 12q8 4 441 157t441 155z m-582-728l0 204l160-82q-130-116-142-128q-18-14-18 6z" horiz-adv-x="921" />
<glyph glyph-name="leaf" unicode="&#xe893;" d="m236 646q182 106 506 66q168-22 196-50q4-6-2-10q-76-40-130-109t-78-132t-65-132t-93-105q-138-96-382-4q-66-76-114-176q-12-24-47-7t-25 39q44 100 129 193t176 153t176 106t141 68l54 20q-14 0-41-1t-104-14t-148-38t-162-84t-161-141q-22 242 174 358z" horiz-adv-x="940" />
<glyph glyph-name="lifebuoy" unicode="&#xe894;" d="m454 810q190 2 326-130t140-322q2-190-131-327t-323-141q-190-2-327 131t-139 323q-4 190 130 327t324 139z m0-60q-94 0-178-44l62-104q56 28 122 28t122-28l62 104q-88 46-190 44z m-246-522q-28 60-28 122q0 64 28 124l-102 62q-46-88-46-190q2-96 46-180z m258-278q98 4 178 46l-62 104q-60-30-122-30t-122 30l-62-104q86-46 190-46z m-6 180q92 0 156 65t64 155q0 92-64 156t-156 64t-156-64t-64-156q0-90 64-155t156-65z m252 98l104-62q46 96 44 190q0 96-44 180l-104-62q28-60 28-124q0-62-28-122z" horiz-adv-x="920" />
<glyph glyph-name="mouse" unicode="&#xe895;" d="m551 130q28-80-17-157t-139-111q-94-28-175 9t-103 117l-106 384q-20 68 6 134t84 106l-96 186q-14 34 14 48q30 18 48-14l98-192q80 22 154-16t102-116z m-324 274q28 10 40 36t4 54q-10 28-35 41t-53 5q-28-10-40-36t-4-54q10-28 35-41t53-5z" horiz-adv-x="561" />
<glyph glyph-name="briefcase" unicode="&#xe896;" d="m456 326l0-100l-456 0q8 226 10 292q4 108 100 108l160 0q16 26 37 67t23 45q14 26 23 32t37 6l222 0q26 0 36-7t22-31q18-32 60-112l160 0q96 0 100-108l10-292l-454 0l0 100l-90 0z m-74 354l-28-54l292 0l-28 54q-14 26-42 26l-152 0q-28 0-42-26z m164-604l0 100l430 0q-6-88-10-166q-6-84-90-84l-750 0q-90 0-90 84l-10 166l430 0l0-100l90 0z" horiz-adv-x="1000" />
<glyph glyph-name="suitcase" unicode="&#xe897;" d="m900 650q42 0 71-30t29-70l0-550q0-42-29-71t-71-29l-50 0l0 750l50 0z m-900-100q0 40 30 70t70 30l50 0l0-750l-50 0q-40 0-70 29t-30 71l0 550z m670 204l0-104l110 0l0-750l-560 0l0 750l110 0l0 104q98 46 170 46t170-46z m-60-104l0 66q-52 24-110 24q-54 0-110-24l0-66l220 0z" horiz-adv-x="1000" />
<glyph glyph-name="dot" unicode="&#xe898;" d="m110 460q46 0 78-32t32-78q0-44-32-77t-78-33t-78 33t-32 77q0 46 32 78t78 32z" horiz-adv-x="220" />
<glyph glyph-name="dot-2" unicode="&#xe899;" d="m110 460q46 0 78-32t32-78q0-44-32-77t-78-33t-78 32t-32 78t32 78t78 32z m350 0q46 0 78-32t32-78q0-44-33-77t-77-33q-46 0-78 32t-32 78t32 78t78 32z" horiz-adv-x="570" />
<glyph glyph-name="dot-3" unicode="&#xe89a;" d="m110 460q46 0 78-32t32-78q0-44-32-77t-78-33t-78 33t-32 77q0 46 32 78t78 32z m350 0q46 0 78-32t32-78q0-44-33-77t-77-33t-77 33t-33 77q0 46 32 78t78 32z m350 0q46 0 78-32t32-78q0-44-32-77t-78-33t-78 33t-32 77q0 46 32 78t78 32z" horiz-adv-x="920" />
<glyph glyph-name="brush" unicode="&#xe89b;" d="m118 170q38 34 85 29t87-45q42-40 48-87t-30-83q-86-84-228-102q-84-12-80 14q0 4 6 10q52 60 64 145t48 119z m840 646q26-26-148-248t-292-338q-38-38-124-104q-8-6-16 8q-18 34-48 64q-32 32-66 48q-16 6-8 16q64 84 104 122q118 116 344 287t254 145z" horiz-adv-x="962" />
<glyph glyph-name="magnet" unicode="&#xe89c;" d="m518-44l16 164l260-20l-16-166q-4-28-32-24l-200 16q-28 0-28 30z m-490 144l258 20l16-164q2-12-6-21t-22-9l-198-16q-12-2-22 6t-10 18z m-26 270q-2 12-2 34q0 160 120 273t290 113t290-113t120-273q0-22-2-34l-16-170l-258 22l16 170l0 12q0 58-44 99t-106 41t-106-41t-44-99l0-12l16-170l-258-22z" horiz-adv-x="820" />
<glyph glyph-name="infinity" unicode="&#xe89d;" d="m796 570q84 0 144-53t60-167q0-112-60-166t-144-54q-78 0-157 40t-139 106q-58-66-137-106t-157-40q-86 0-146 54t-60 166q0 114 60 167t146 53q78 0 157-39t137-105q58 66 138 105t158 39z m-590-352q60 0 127 37t113 95q-46 58-112 95t-128 37q-114 0-114-132t114-132z m590 0q114 0 114 132t-114 132q-62 0-129-37t-111-95q44-58 111-95t129-37z" horiz-adv-x="1000" />
<glyph glyph-name="erase" unicode="&#xe89e;" d="m902 700q42 0 71-29t29-71l0-500q0-40-29-70t-71-30l-478 0q-38 0-70 28l-340 296q-28 26 0 54l340 296q30 26 70 26l478 0z m-140-550l72 74l-128 126l128 128l-72 72l-128-126l-128 126l-72-72l128-128l-128-126l72-74l128 128z" horiz-adv-x="1002" />
<glyph glyph-name="chart-pie" unicode="&#xe89f;" d="m368 770l0-368l-368 0q18 146 121 249t247 119z m106 0q156-20 261-139t105-279q0-174-123-298t-299-124q-160 0-278 105t-140 263l424 0q20 0 35 14t15 36l0 422z" horiz-adv-x="840" />
<glyph glyph-name="chart-line" unicode="&#xe8a0;" d="m34 284q-42 10-32 56q10 42 54 32l98-24l-52-80z m890-12q14 12 33 11t31-15q32-32-2-64l-252-226q-12-12-30-12q-14 0-28 10l-286 220l-54 14l50 80l36-8q12-4 16-8l264-204z m-490 220l-350-550q-12-22-38-22q-12 0-24 8q-16 10-20 29t6 33l374 588q8 16 28 20q18 6 36-6l246-156l226 326q10 16 28 19t34-9q38-24 12-62l-252-362q-24-36-62-12z" horiz-adv-x="1003" />
<glyph glyph-name="chart-bar" unicode="&#xe8a1;" d="m750 800q22 0 36-15t14-35l0-850l-200 0l0 850q0 50 40 50l110 0z m-300-300q22 0 36-15t14-35l0-550l-200 0l0 550q0 50 40 50l110 0z m-300-300q22 0 36-15t14-35l0-250l-200 0l0 250q0 50 40 50l110 0z" horiz-adv-x="800" />
<glyph glyph-name="chart-area" unicode="&#xe8a2;" d="m964 732q16 22 16-4l0-768l-964 0q-12 0-15 7t5 17l230 288q20 22 40 2l74-66q10-8 21-7t17 11l158 238q16 26 38 4l112-104q20-20 38 4z" horiz-adv-x="980" />
<glyph glyph-name="tape" unicode="&#xe845;" d="m770 580q96 0 163-67t67-163q0-94-67-162t-163-68l-540 0q-94 0-162 68t-68 162q0 96 68 163t162 67q96 0 163-67t67-163q0-72-40-130l160 0q-40 64-40 130q0 96 68 163t162 67z m-670-230q0-52 38-91t92-39t92 39t38 91q0 54-38 92t-92 38t-92-38t-38-92z m670-130q54 0 92 39t38 91q0 54-38 92t-92 38t-92-38t-38-92q0-52 38-91t92-39z" horiz-adv-x="1000" />
<glyph glyph-name="graduation-cap" unicode="&#xe846;" d="m166 238l334-168l276 136q-4-22-8-47t-6-35t-11-23t-24-23t-45-22q-40-18-80-41t-63-34t-39-11t-40 13t-64 37t-80 40q-72 32-103 69t-47 109z m810 246q24-14 24-33t-24-33l-78-44l-308 102q-22 36-90 36q-40 0-67-16t-27-40t27-40t67-16q26 0 36 4l292-68l-268-152q-60-32-120 0l-416 234q-24 14-24 33t24 33l416 234q60 32 120 0z m-128-442q18 116 13 182t-19 90l-14 22l70 38q6-8 12-28t17-101t-7-197q-4-26-22-30t-35 5t-15 19z" horiz-adv-x="1000" />
<glyph glyph-name="language" unicode="&#xe847;" d="m988 306q30-82-10-176t-134-160q-10 0-12 2t-16 19t-16 19q-2 6 2 10q86 60 117 152t-11 148q-16-38-39-76t-59-80t-86-65t-106-15q-52 6-84 41t-32 93q0 84 60 148q50 50 114 66l-2 100q-140-24-146-24q-6-2-10 4q0 2-5 29t-5 31q-2 2 1 4t7 2l156 28q0 110-2 114q0 8 8 8q46 0 52 2q10 0 10-8l0-104q158 22 164 22q8 4 10-6q0-2 4-23t4-25q4-10-4-12l-176-30l0-102l12 0q86 0 148-36t86-100z m-370-160q28-6 62 6l-4 214q-34-12-60-40q-44-44-44-108q0-66 46-72z m122 28q28 24 58 68t45 79t7 41q-36 18-96 18q-2 0-6-1t-6-1z m-448 382q10-28 53-165t83-261t40-126q0-4-4-4l-86 0q-6 0-6 4l-50 166l-176 0q-48-164-50-166q0-4-6-4l-86 0q-4 0-4 4q10 18 176 552q2 8 10 8l96 0q10 0 10-8z m-130-316l144 0l-72 264z" horiz-adv-x="1001" />
<glyph glyph-name="ticket" unicode="&#xe848;" d="m216 272l326 326l178-178l-326-326z m710 244q14-14 14-36t-14-36l-550-550q-16-16-36-16t-36 16l-76 76q12 20 12 48q0 42-29 72t-71 30q-22 0-50-14l-74 76q-16 16-16 36t16 36l550 550q14 14 36 14t36-14l74-76q-12-22-12-48q0-42 30-71t72-29q26 0 48 12z m-532-502l406 406l-258 258l-408-406z" horiz-adv-x="940" />
<glyph glyph-name="water" unicode="&#xe849;" d="m168 844q10-86 50-155t73-123t33-112q0-66-48-113t-114-47t-114 47t-48 113q0 58 33 112t73 123t50 155q2 4 7 4t5-4z m616 0q10-86 50-155t73-123t33-112q0-66-48-113t-114-47t-114 47t-48 113q0 48 21 93t48 78t53 92t34 127q2 4 7 4t5-4z m-320-444q2 4 7 4t5-4q10-86 50-155t73-123t33-112q0-66-48-113t-114-47t-114 47t-48 113q0 58 33 112t73 123t50 155z" horiz-adv-x="940" />
<glyph glyph-name="droplet" unicode="&#xe84a;" d="m290 822q14-118 60-219t92-159t82-136t36-160q0-114-83-196t-197-82t-197 82t-83 196q0 82 36 160t82 136t92 159t60 219q2 8 11 8t9-8z m-42-392q2 4-2 14q-6 6-14 6t-12-6l-40-58q-32-46-48-70t-34-75t-18-101q0-24 17-41t41-17q58 0 58 68q0 94 42 246q2 6 5 17t5 17z" horiz-adv-x="560" />
<glyph glyph-name="air" unicode="&#xe84b;" d="m85 534q-16-14-36-12t-34 18q-14 14-12 36t18 36q48 40 79 60t89 40t129 4t159-66t155-53t100 16t89 67q38 30 70-6q32-40-6-72q-122-110-234-110q-100 0-222 70q-68 38-119 52t-93 0t-65-29t-67-51z m736-110q38 32 70-6q32-40-6-72q-40-34-65-53t-72-38t-97-19q-96 0-222 70q-68 38-119 52t-93 0t-65-29t-67-51q-14-14-35-12t-35 18q-32 40 6 72q38 34 60 50t69 38t88 23t105-15t134-56q68-38 119-52t93 0t65 29t67 51z m0-256q38 32 70-6q14-14 12-36t-18-36q-40-34-65-53t-72-38t-97-19q-96 0-222 70q-68 38-119 52t-93 1t-66-29t-66-52q-14-14-35-12t-35 18q-32 40 6 72q38 34 60 50t69 38t88 23t105-15t134-56q68-38 119-52t93 0t65 29t67 51z" horiz-adv-x="905" />
<glyph glyph-name="credit-card" unicode="&#xe84c;" d="m900 700q42 0 71-30t29-70l0-500q0-42-29-71t-71-29l-800 0q-40 0-70 29t-30 71l0 500q0 40 30 70t70 30l800 0z m0-600l0 300l-800 0l0-300l800 0z m0 450l0 50l-800 0l0-50l800 0z m-700-256l30 0l0-30l-30 0l0 30z m180-60l30 0l0 30l30 0l0 30l60 0l0-30l-30 0l0-30l-30 0l0-30l-60 0l0 30z m120-30l-30 0l0 30l30 0l0-30z m-150 0l-60 0l0 30l60 0l0-30z m30 60l0-30l-30 0l0 60l60 0l0-30l-30 0z m-120-30l0-30l-60 0l0 30l30 0l0 30l30 0l0 30l60 0l0-30l-30 0l0-30l-30 0z" horiz-adv-x="1000" />
<glyph glyph-name="floppy" unicode="&#xe84d;" d="m658 750l142-156l0-544q0-40-29-70t-71-30l-600 0q-40 0-70 30t-30 70l0 600q0 42 30 71t70 29l558 0z m-58-300l0 250l-400 0l0-250q0-20 15-35t35-15l300 0q20 0 35 15t15 35z m-50 200l0-200l-100 0l0 200l100 0z" horiz-adv-x="800" />
<glyph glyph-name="clipboard" unicode="&#xe84e;" d="m630 750q28 0 49-21t21-49l0-760q0-30-21-50t-49-20l-560 0q-28 0-49 20t-21 50l0 760q0 28 21 49t49 21l60-150l440 0z m-100-100l-360 0l-44 100l108 0l36 100l160 0l36-100l110 0z" horiz-adv-x="700" />
<glyph glyph-name="megaphone" unicode="&#xe84f;" d="m792 500q58-138 67-258t-39-140q-28-12-61 3t-65 40t-99 41t-149 8q-28-4-42-19t-6-37q22-56 46-108q4-10 24-22t24-20q14-34-22-46q-50-22-102-40q-30-10-54 42q-32 76-58 132q-6 12-34 17t-46 31q-30-10-38-14q-34-12-74 12t-54 60q-17 32-5 79t43 61q126 52 213 108t124 103t59 92t25 78t15 59t36 36q48 20 130-70t142-228z m-28-300q8 4 10 38t-11 98t-41 128q-28 66-67 123t-67 84t-36 23t-10-42t10-105t40-133t68-119t68-76t36-19z" horiz-adv-x="860" />
<glyph glyph-name="database" unicode="&#xe850;" d="m686 208q14 20 14-2l0-100q0-74-104-135t-246-61q-140 0-245 61t-105 135l0 100q0 8 4 10t10-8q32-52 125-86t211-34t211 34t125 86z m2 254q8 16 12 0l0-116q0-68-102-114t-248-46q-144 0-247 46t-103 114l0 116q0 20 14 0q30-46 124-75t212-29t212 29t126 75z m-338 328q144 0 247-39t103-93l0-64q0-58-103-99t-247-41t-247 41t-103 99l0 64q0 54 103 93t247 39z" horiz-adv-x="700" />
<glyph glyph-name="drive" unicode="&#xe851;" d="m884 304q26-44 14-96l-34-184q-2-20-19-35t-39-15l-712 0q-20 0-38 15t-20 35l-34 184q-8 52 14 96l158 374q22 46 72 46l408 0q50 0 74-46z m-68-132q2 22-10 38t-34 16l-644 0q-22 0-34-16t-10-38l14-74q2-22 19-37t39-15l590 0q22 0 39 15t19 37z" horiz-adv-x="902" />
<glyph glyph-name="bucket" unicode="&#xe852;" d="m522 780q174 0 286-49t104-105q-6-38-48-307t-44-281q-2-18-37-44t-107-50t-154-24t-153 24t-106 50t-37 44q0 2-4 30q82-6 163 35t139 117q28 0 48 20t20 50q0 28-20 49t-50 21q-28 0-49-21t-21-49q0-20 10-36q-48-58-115-89t-131-27q-102 10-157 57t-59 109q-8 122 156 184q-18 94-22 138q-8 56 104 105t284 49z m-452-470q4-32 37-59t91-39l-32 204q-100-44-96-106z m452 212q82 0 157 18t113 39t38 35t-38 35t-112 39t-158 18q-82 0-156-18t-112-39t-38-35t38-35t112-39t156-18z" horiz-adv-x="913" />
<glyph glyph-name="thermometer" unicode="&#xe844;" d="m400 356q64-36 102-98t38-138q0-112-79-191t-191-79t-191 79t-79 191q0 76 38 138t102 98l0 444q0 50 40 50l170 0q20 0 35-15t15-35l0-444z m-130-406q70 0 120 50t50 120q0 56-32 100t-84 60l0 370l-100 0l0-368q-54-16-89-61t-35-101q0-70 50-120t120-50z" horiz-adv-x="540" />
<glyph glyph-name="key" unicode="&#xe843;" d="m774 612q20-116-28-215t-150-117q-66-12-130-2l-118-194l-70-12l-104-166q-14-28-46-32l-76-14q-12-4-22 4t-12 22l-16 98q-8 30 12 56l258 386q-24 50-38 120q-18 106 53 187t185 101q106 20 195-45t107-177z m-126-76q30 44 21 97t-51 83q-42 32-92 22t-80-54q-8-12-12-23t-1-20t5-16t13-17t18-15t22-16t23-17q6-4 22-16t23-16t19-12t19-8t17 1t18 8t16 19z" horiz-adv-x="780" />
<glyph glyph-name="flow-cascade" unicode="&#xe842;" d="m520 120q50 0 85-35t35-85t-35-85t-85-35q-80 0-110 74l-164 0q-88 0-131 54t-43 118l0 464q-72 34-72 110q0 50 35 85t85 35t85-35t35-85q0-76-72-110l0-114q0-78 78-78l164 0q30 72 110 72q50 0 85-35t35-85t-35-85t-85-35q-80 0-110 74l-164 0q-42 0-78 16l0-194q0-78 78-78l164 0q30 72 110 72z m0 300q-28 0-49-20t-21-50q0-28 21-48t49-20t49 20t21 48q0 30-21 50t-49 20z m-470 280q0-28 21-48t49-20t49 20t21 48q0 30-21 50t-49 20t-49-20t-21-50z m470-768q28 0 49 20t21 48q0 30-21 50t-49 20t-49-20t-21-50q0-28 21-48t49-20z" horiz-adv-x="640" />
<glyph glyph-name="flow-tree" unicode="&#xe841;" d="m868 112q72-34 72-112q0-50-35-85t-85-35t-85 35t-35 85q0 78 72 112l0 114q0 78-76 78l-100 0q-44 0-78 12l0-204q72-34 72-112q0-50-35-85t-85-35t-85 35t-35 85q0 78 72 112l0 204q-30-12-76-12l-100 0q-34 0-53-19t-22-33t-3-26l0-114q72-34 72-112q0-50-35-85t-85-35t-85 35t-35 85q0 78 72 112l0 114q0 64 43 118t131 54l100 0q76 0 76 52l0 140q-72 34-72 110q0 50 35 85t85 35t85-35t35-85q0-76-72-110l0-140q0-52 78-52l100 0q86 0 129-54t43-118l0-114z m-678-112q0 30-21 50t-49 20t-48-20t-20-50q0-28 20-48t48-20t49 20t21 48z m212 700q0-28 20-48t48-20t49 20t21 48q0 30-21 50t-49 20t-48-20t-20-50z m138-700q0 30-21 50t-49 20t-48-20t-20-50q0-28 20-48t48-20t49 20t21 48z m280-68q28 0 49 20t21 48q0 30-21 50t-49 20t-48-20t-20-50q0-28 20-48t48-20z" horiz-adv-x="940" />
<glyph glyph-name="flow-line" unicode="&#xe840;" d="m168 162q72-34 72-112q0-50-35-85t-85-35t-85 35t-35 85q0 78 72 112l0 378q-72 34-72 110q0 50 35 85t85 35t85-35t35-85q0-76-72-110l0-378z m-116 488q0-28 20-48t48-20t49 20t21 48q0 30-21 50t-49 20t-48-20t-20-50z m68-668q28 0 49 20t21 48q0 30-21 50t-49 20t-48-20t-20-50q0-28 20-48t48-20z" horiz-adv-x="240" />
<glyph glyph-name="flow-parallel" unicode="&#xe802;" d="m240 650q0-76-72-110l0-378q72-34 72-112q0-50-35-85t-85-35t-85 35t-35 85q0 78 72 112l0 378q-72 34-72 110q0 50 35 85t85 35t85-35t35-85z m-50-600q0 30-21 50t-49 20t-48-20t-20-50q0-28 20-48t48-20t49 20t21 48z m-70 532q28 0 49 20t21 48q0 30-21 50t-49 20t-48-20t-20-50q0-28 20-48t48-20z m448-420q72-34 72-112q0-50-35-85t-85-35t-85 35t-35 85q0 78 72 112l0 378q-72 34-72 110q0 50 35 85t85 35t85-35t35-85q0-76-72-110l0-378z m-116 488q0-28 20-48t48-20t49 20t21 48q0 30-21 50t-49 20t-48-20t-20-50z m68-668q28 0 49 20t21 48q0 30-21 50t-49 20t-48-20t-20-50q0-28 20-48t48-20z" horiz-adv-x="640" />
<glyph glyph-name="rocket" unicode="&#xe83f;" d="m543 236q6-50 8-81t-8-59t-13-40t-35-32t-45-26t-70-31t-85-37q-32-12-45 4t-3 44l40 110l-130 132l-106-40q-28-12-43 2t-3 46q12 30 31 79t27 65t22 45t25 36t29 20t41 13l52 0t71-6q10 14 29 39t77 85t118 104t145 75t165 19q8 0 14-6q4-4 6-14q10-82-18-168t-76-151t-98-118t-86-81z m50 296q22-22 54-22t54 22q22 24 22 56t-22 56q-22 22-54 22t-54-22q-22-24-22-56t22-56z" horiz-adv-x="860" />
<glyph glyph-name="gauge" unicode="&#xe805;" d="m406 178q34 56 214 284t194 220q12-6-96-278t-138-326q-50-86-136-36t-38 136z m94 380q-168 0-284-127t-116-311q0-30 2-46q2-22-12-37t-34-17t-36 12t-18 34q0 8-1 26t-1 28q0 226 145 382t355 156q72 0 134-18l-70-86q-40 4-64 4z m362-62q138-154 138-376q0-38-2-56q-2-20-16-33t-34-13l-4 0q-22 4-35 20t-11 36q2 14 2 46q0 150-80 268q6 14 20 51t22 57z" horiz-adv-x="1000" />
<glyph glyph-name="traffic-cone" unicode="&#xe806;" d="m480 246q-90 0-156 27t-70 65q44 124 56 158q10-28 59-46t111-18q64 0 112 18t58 46q12-34 56-158q-4-38-70-65t-156-27z m0 334q-96 0-124 44l52 142q10 34 72 34t74-34q12-38 50-142q-28-44-124-44z m440-384q40-16 41-41t-37-47l-352-188q-38-22-91-22t-91 22l-354 188q-38 20-36 46t42 42l188 76l-22-60q0-48 80-82t192-34t192 34t82 82l-22 60z" horiz-adv-x="961" />
<glyph glyph-name="cc" unicode="&#xe807;" d="m474 830q198 2 340-136t146-336q2-200-136-342t-338-146q-198-2-341 137t-145 337q-4 200 135 342t339 144z m12-858q156 2 266 114t108 270t-115 267t-269 107q-158-2-267-114t-107-270t114-267t270-107z m-124 298q40 0 58 40l56-30q-20-36-50-52q-32-20-70-20q-62 0-100 38q-38 36-38 104t38 106t96 38q86 0 124-66l-62-32q-10 20-24 28t-28 8q-60 0-60-82q0-38 14-58q18-22 46-22z m266 0q42 0 56 40l58-30q-18-32-50-52t-70-20q-64 0-100 38q-38 36-38 104q0 64 38 106q38 38 98 38q84 0 120-66l-60-32q-10 20-24 28t-28 8q-62 0-62-82q0-36 16-58t46-22z" horiz-adv-x="960" />
<glyph glyph-name="cc-by" unicode="&#xe808;" d="m480 526q-66 0-66 68t66 68q68 0 68-68t-68-68z m98-26q14 0 22-8q10-10 10-22l0-196l-56 0l0-234l-148 0l0 234l-56 0l0 196q0 12 10 22q8 8 22 8l196 0z m-98 330q200 0 340-140t140-340q0-198-140-339t-340-141q-198 0-339 141t-141 339q0 200 141 340t339 140z m0-872q162 0 277 115t115 277q0 164-115 278t-277 114t-277-114t-115-278q0-162 115-277t277-115z" horiz-adv-x="960" />
<glyph glyph-name="cc-nc" unicode="&#xe809;" d="m480 830q200 0 340-140t140-340q0-198-140-339t-340-141q-198 0-339 141t-141 339q0 200 141 340t339 140z m-370-350q-22-62-22-130q0-162 115-277t277-115q110 0 202 56t142 148l-178 80q-8-46-46-74q-38-30-86-34l0-74l-56 0l0 74q-78 0-146 58l66 66q50-44 108-44q24 0 42 12t18 36q0 18-14 30l-46 20l-56 26l-76 32z m506-122l242-108q14 44 14 100q0 164-115 278t-277 114q-102 0-188-48t-140-130l182-82q12 36 46 62q32 22 78 24l0 74l56 0l0-74q68-4 120-44l-62-64q-44 28-84 28q-24 0-38-8q-18-10-18-30q0-8 4-12l60-28l42-18z" horiz-adv-x="960" />
<glyph glyph-name="cc-nc-eu" unicode="&#xe80a;" d="m480 830q200 0 340-140t140-340q0-198-140-339t-340-141q-198 0-339 141t-141 339q0 200 141 340t339 140z m-370-352q-22-62-22-128q0-162 115-277t277-115q110 0 201 55t143 149l-246 108l-174 0q10-36 26-56q38-40 104-40q46 0 92 20l18-90q-56-30-124-30q-128 0-196 92q-34 44-46 104l-52 0l0 58l44 0l0 14q0 4 1 12t1 12l-46 0l0 56l10 0z m488-112l262-116q12 48 12 100q0 164-115 278t-277 114q-102 0-189-48t-141-130l158-70q8 14 28 38q72 82 184 82q70 0 122-24l-24-92q-40 20-88 20q-64 0-100-44q-10-10-16-28l56-24l136 0l0-56l-8 0z" horiz-adv-x="960" />
<glyph glyph-name="cc-nc-jp" unicode="&#xe80b;" d="m480 830q200 0 340-140t140-340q0-198-140-339t-340-141q-198 0-339 141t-141 339q0 200 141 340t339 140z m-374-364q-18-54-18-116q0-162 115-277t277-115q106 0 195 52t141 140l-152 68l0-68l-126 0l0-108l-118 0l0 108l-124 0l0 74l124 0l0 36l-12 24l-112 0l0 74l54 0z m432-242l112 0l-106 48l-6-12l0-36z m126 100l192-86q16 58 16 112q0 164-115 278t-277 114q-106 0-194-51t-140-137l158-70l-54 98l128 0l76-166l46-20l82 186l128 0l-122-224l76 0l0-34z" horiz-adv-x="960" />
<glyph glyph-name="cc-sa" unicode="&#xe80c;" d="m478 604q114 0 180-74q66-72 66-186q0-110-68-184q-74-74-180-74q-80 0-142 50q-58 48-70 138l120 0q6-86 106-86q50 0 82 42q30 44 30 118q0 76-28 116q-30 40-82 40q-96 0-108-86l36 0l-96-94l-94 94l36 0q14 90 72 138t140 48z m2 226q200 0 340-140t140-340q0-198-140-339t-340-141q-198 0-339 141t-141 339q0 200 141 340t339 140z m0-872q162 0 277 115t115 277q0 164-115 278t-277 114t-277-114t-115-278q0-162 115-277t277-115z" horiz-adv-x="960" />
<glyph glyph-name="cc-nd" unicode="&#xe80d;" d="m306 382l0 82l348 0l0-82l-348 0z m0-154l0 82l348 0l0-82l-348 0z m174 602q200 0 340-140t140-340q0-198-140-339t-340-141q-198 0-339 141t-141 339q0 200 141 340t339 140z m0-872q162 0 277 115t115 277q0 164-115 278t-277 114t-277-114t-115-278q0-162 115-277t277-115z" horiz-adv-x="960" />
<glyph glyph-name="cc-pd" unicode="&#xe80e;" d="m480 830q200 0 340-140t140-340q0-198-140-339t-340-141q-198 0-339 141t-141 339q0 200 141 340t339 140z m-370-352q-22-62-22-128q0-162 115-277t277-115q110 0 201 55t143 149l-424 188q2-54 28-96t76-42q36 0 64 26l6 6l70-84q-4-2-10-7t-8-9q-62-42-136-42q-86 0-159 58t-73 188q0 32 6 62z m310-34l440-194q12 48 12 100q0 164-115 278t-277 114q-102 0-189-48t-141-130l148-66q64 102 196 102q88 0 150-54l-78-80q-8 8-14 12q-22 16-52 16q-52 0-80-50z" horiz-adv-x="960" />
<glyph glyph-name="cc-zero" unicode="&#xe80f;" d="m480 628q108 0 153-81t45-197q0-114-45-195t-153-81t-153 81t-45 195q0 116 45 197t153 81z m-86-278q0-18 4-66l106 194q14 24-6 42q-12 4-18 4q-86 0-86-174z m86-172q86 0 86 172q0 40-6 84l-118-204q-22-30 12-46q2-2 6-2q2 0 2-2q2 0 8-1t10-1z m0 652q200 0 340-140t140-340q0-198-140-339t-340-141q-198 0-339 141t-141 339q0 200 141 340t339 140z m0-872q162 0 277 115t115 277q0 164-115 278t-277 114t-277-114t-115-278q0-162 115-277t277-115z" horiz-adv-x="960" />
<glyph glyph-name="cc-share" unicode="&#xe810;" d="m676 488q12 0 20-8t8-18l0-354q0-10-8-18t-20-8l-260 0q-12 0-20 8t-8 18l0 104l-104 0q-10 0-18 8t-8 20l0 352q0 12 6 18q4 6 18 10l264 0q10 0 18-8t8-20l0-104l104 0z m-264 0l108 0l0 78l-210 0l0-300l78 0l0 196q0 10 8 18q4 4 16 8z m238-354l0 302l-210 0l0-302l210 0z m-170 696q200 0 340-140t140-340q0-198-140-339t-340-141q-198 0-339 141t-141 339q0 200 141 340t339 140z m0-872q162 0 277 115t115 277q0 164-115 278t-277 114t-277-114t-115-278q0-162 115-277t277-115z" horiz-adv-x="960" />
<glyph glyph-name="cc-remix" unicode="&#xe811;" d="m794 342l10-4l0-136l-10-4l-116-50l-4-2l-6 2l-252 104l-8 4l-124-52l-124 54l0 122l116 48l-2 2l0 136l130 56l294-122l0-118z m-136-158l0 86l-2 0l0 2l-220 90l0-86l220-92l0 2z m14 112l78 32l-72 30l-76-32z m102-74l0 84l-86-36l0-84z m-294 608q200 0 340-140t140-340q0-198-140-339t-340-141q-198 0-339 141t-141 339q0 200 141 340t339 140z m0-872q162 0 277 115t115 277q0 164-115 278t-277 114t-277-114t-115-278q0-162 115-277t277-115z" horiz-adv-x="960" />
<glyph glyph-name="github" unicode="&#xe812;" d="m620 286q26 0 45-26t19-64t-19-64t-45-26q-28 0-47 26t-19 64t19 64t47 26z m226 234q74-80 74-194q0-74-17-133t-43-96t-64-65t-70-41t-73-20t-62-8t-45-1q-6 0-36-1t-50-1t-50 1t-36 1q-24 0-45 1t-62 8t-73 20t-70 41t-64 65t-43 96t-17 133q0 114 74 194q-8 4-1 80t33 140q92-10 228-104q46 12 126 12q84 0 126-12q62 42 119 68t83 30l26 6q26-64 33-140t-1-80z m-384-514q166 0 251 40t85 164q0 72-54 120q-28 26-65 32t-113 0t-104-6l-4 0q-32 0-83 4t-80 5t-63-7t-56-28q-52-46-52-120q0-124 84-164t250-40l4 0z m-160 280q26 0 45-26t19-64t-19-64t-45-26q-28 0-47 26t-19 64t19 64t47 26z" horiz-adv-x="920" />
<glyph glyph-name="github-circled" unicode="&#xe813;" d="m480 354q16 0 42 2t41 2t32-4t29-14q26-26 26-60q0-64-43-84t-127-20t-127 20t-43 84q0 34 26 60q12 10 29 14t32 4t41-2t42-2z m-80-128q14 0 23 14t9 32q0 46-32 46t-32-46q0-18 9-32t23-14z m160 0q14 0 24 14t10 32q0 20-10 33t-24 13q-32 0-32-46q0-18 9-32t23-14z m-80 604q200 0 340-140t140-340q0-198-140-339t-340-141q-198 0-339 141t-141 339q0 200 141 340t339 140z m44-676q188 0 188 184q0 56-38 98q4 4 1 41t-17 71q-44-6-114-52q-20 6-64 6q-40 0-64-6q-30 20-59 33t-41 17l-14 2q-14-34-17-71t1-41q-38-42-38-98q0-184 188-184l88 0z" horiz-adv-x="960" />
<glyph glyph-name="flickr" unicode="&#xe814;" d="m196 150q-80 0-138 59t-58 141q0 84 57 142t139 58t139-58t57-142q0-82-58-141t-138-59z m508 0q-80 0-138 59t-58 141q0 84 57 142t139 58t139-58t57-142q0-82-58-141t-138-59z" horiz-adv-x="900" />
<glyph glyph-name="flickr-circled" unicode="&#xe815;" d="m480 830q200 0 340-140t140-340q0-198-140-339t-340-141q-198 0-339 141t-141 339q0 200 141 340t339 140z m-128-580q40 0 70 30t30 70q0 42-30 72t-70 30t-70-30t-30-72q0-40 30-70t70-30z m256 0q42 0 71 30t29 70q0 42-29 72t-71 30q-40 0-69-30t-29-72q0-40 29-70t69-30z" horiz-adv-x="960" />
<glyph glyph-name="vimeo" unicode="&#xe816;" d="m896 558q-32-186-171-351t-245-237q-42-28-81-17t-66 38t-43 61q-16 32-78 239t-74 223q-16 12-38 5t-44-21l-20-14l-36 50q18 20 46 52t100 89t124 67q30 6 53-7t36-35t23-60t15-70t12-75t13-67q14-54 21-80t17-54t18-39t18-11q40 0 126 166q42 76 6 124t-112 2q22 126 140 188q104 54 182 8q80-46 58-174z" horiz-adv-x="901" />
<glyph glyph-name="vimeo-circled" unicode="&#xe83a;" d="m480 830q200 0 340-140t140-340q0-198-140-339t-340-141q-198 0-339 141t-141 339q0 200 141 340t339 140z m220-386q14 82-48 94q-60 14-110-40q-28-28-34-66q38 24 56-1t-2-63q-44-84-64-84q-14 0-36 94q-4 14-8 40t-8 45t-12 39t-20 29t-30 5q-26-6-60-32t-56-50l-20-24l18-24q4 4 10 8t22 10t20-2q6-8 37-113t39-121q14-28 38-43t58 1q54 36 124 120t86 178z" horiz-adv-x="960" />
<glyph glyph-name="twitter" unicode="&#xe83b;" d="m920 636q-36-54-94-98l0-24q0-130-60-250t-186-203t-290-83q-160 0-290 84q14-2 46-2q132 0 234 80q-62 2-110 38t-66 94q10-4 34-4q26 0 50 6q-66 14-108 66t-42 120l0 2q36-20 84-24q-84 58-84 158q0 48 26 94q154-188 390-196q-6 18-6 42q0 78 55 133t135 55q82 0 136-58q60 12 120 44q-20-66-82-104q56 8 108 30z" horiz-adv-x="920" />
<glyph glyph-name="twitter-circled" unicode="&#xe817;" d="m480 830q200 0 340-140t140-340q0-198-140-339t-340-141q-198 0-339 141t-141 339q0 200 141 340t339 140z m196-392q30 22 46 48q-32-12-54-14q30 18 42 52q-30-16-60-22q-28 28-70 28q-40 0-67-28t-27-66q0-2 1-10t1-12q-120 6-194 100q-14-24-14-48q0-50 44-78q-26 0-44 12l0-2q0-34 21-60t55-32q-16-4-24-4q-12 0-18 2q20-66 88-66q-50-40-118-40l-22 0q68-42 144-42q122 0 196 83t74 187l0 12z" horiz-adv-x="960" />
<glyph glyph-name="facebook" unicode="&#xe818;" d="m500 644l-142 0q-14 0-25-15t-11-37l0-102l178 0l0-148l-178 0l0-442l-170 0l0 442l-152 0l0 148l152 0l0 86q0 94 59 159t147 65l142 0l0-156z" horiz-adv-x="500" />
<glyph glyph-name="facebook-circled" unicode="&#xe819;" d="m480 830q200 0 340-140t140-340q0-198-140-339t-340-141t-340 141t-140 339q0 200 140 340t340 140z m114-330l0 78l-72 0q-44 0-74-33t-30-81l0-44l-76 0l0-74l76 0l0-222l86 0l0 222l90 0l0 74l-90 0l0 52q0 28 18 28l72 0z" horiz-adv-x="960" />
<glyph glyph-name="facebook-squared" unicode="&#xe81a;" d="m752 770q44 0 76-31t32-75l0-646q0-44-32-76t-76-32l-162 0l0 310l114 0l0 134l-114 0l0 70q0 30 28 30l86 0l0 152l-96 0q-74 0-124-54t-50-132l0-66l-104 0l0-134l104 0l0-310l-326 0q-44 0-76 32t-32 76l0 646q0 44 32 75t76 31l644 0z" horiz-adv-x="860" />
<glyph glyph-name="gplus" unicode="&#xe81b;" d="m48 572q0 58 25 102t56 65t69 34t56 15t26 2l230 0l0-4q0-22-78-36q-28 0-38-6q40-20 54-56t14-96q0-102-68-158q-38-38-38-54q0-18 50-64q104-90 104-178q0-140-116-194q-68-34-150-34l-4 0l-4 2q-2-2-4-2q-24 0-54 5t-75 21t-74 57t-29 103q0 60 32 101t83 57t88 22t71 6l2 0q-16 22-24 47t-8 39l2 14l-14 0q-64 0-110 30q-74 44-74 160z m370-452q-4 52-43 84t-103 32l-16 0q-64-2-114-46q-46-42-42-94t53-80t119-24q68 4 109 40t37 88z m-60 500q-30 108-122 108q-12 0-20-2q-40-12-58-62q-16-50-2-106q14-52 47-85t71-33q12 0 18 2q42 12 63 65t3 113z m388-174l150 0l0-94l-150 0l0-150l-94 0l0 150l-150 0l0 94l150 0l0 150l94 0l0-150z" horiz-adv-x="896" />
<glyph glyph-name="gplus-circled" unicode="&#xe81c;" d="m434 486q8-30-1-57t-31-33l-10 0q-42 0-60 60q-6 30 2 54q10 24 30 30q2 2 10 2q44 0 60-56z m46 344q200 0 340-140t140-340q0-198-140-339t-340-141q-198 0-339 141t-141 339q0 200 141 340t339 140z m-28-686q60 30 60 98q0 44-52 92q-26 22-26 32q0 12 20 26q34 34 34 80q0 58-36 78q2 2 10 3t10 1q40 4 40 16l0 4l-116 0q-12 0-33-4t-53-32t-32-76q0-56 38-80q22-16 56-16l6 0q-4-24 16-50l-2 0q-138 0-138-94q0-40 28-63t49-27t39-4l8 0q40 0 74 16z m254 208l0 48l-76 0l0 76l-48 0l0-76l-76 0l0-48l76 0l0-76l48 0l0 76l76 0z m-314-58q32 0 52-17t22-43t-19-44t-55-20q-34-4-60 11t-28 41q0 26 22 48q20 20 58 24l8 0z" horiz-adv-x="960" />
<glyph glyph-name="pinterest" unicode="&#xe81d;" d="m320 190q-26-130-58-211t-96-129q-6 74-7 120t11 110t22 104t26 99t24 99q-24 52-19 116t48 106t99 20q40-16 44-59t-13-95t-32-103t-4-90t63-49q68-14 121 38t74 131t11 163t-54 128q-62 64-151 70t-163-33t-120-117t-32-170q4-22 22-52t21-47t-17-67q-146 34-140 230q4 138 105 234t233 112q164 18 290-57t144-219q26-176-66-317t-252-129q-22 2-42 9t-30 13t-31 21t-31 21z" horiz-adv-x="778" />
<glyph glyph-name="pinterest-circled" unicode="&#xe81e;" d="m480 830q200 0 340-140t140-340q0-198-140-339t-340-141t-340 141t-140 339q0 200 140 340t340 140z m32-592q82-8 128 64t34 162q-10 72-74 110t-146 28q-66-8-117-56t-53-118q-4-100 70-116q10 24 9 33t-10 24t-11 27q-14 96 78 144t158-18q48-48 20-148t-98-86q-40 8-33 54t24 86t-21 60q-42 18-65-33t1-89q-4-20-21-83t-18-87t1-98q52 38 78 172q46-30 66-32z" horiz-adv-x="960" />
<glyph glyph-name="tumblr" unicode="&#xe81f;" d="m560-58q-48-26-106-40q-48-12-102-12q-58 0-110 16q-54 20-82 46q-36 32-46 64q-14 30-14 96l0 322l-100 0l0 130q54 18 92 50t62 80q24 52 30 116l130 0l0-232l216 0l0-144l-216 0l0-236q0-84 8-102q10-24 32-36q28-20 68-20q68 0 138 46l0-144z" horiz-adv-x="560" />
<glyph glyph-name="tumblr-circled" unicode="&#xe820;" d="m480 830q200 0 340-140t140-340q0-198-140-339t-340-141q-198 0-339 141t-141 339q0 200 141 340t339 140z m130-686l0 74q-36-24-70-24q-16 0-36 10q-12 8-14 18q-6 12-6 52l0 118l110 0l0 74l-110 0l0 118l-64 0q-8-42-16-60q-10-22-32-40t-46-26l0-66l50 0l0-162q0-28 8-48q6-16 24-32q14-14 40-24q32-8 56-8q28 0 52 6q28 6 54 20z" horiz-adv-x="960" />
<glyph glyph-name="linkedin" unicode="&#xe821;" d="m204 698q0-40-29-68t-75-28q-44 0-72 28t-28 68q0 42 28 69t74 27t73-27t29-69z m-198-790l0 618l192 0l0-618l-192 0z m306 420q0 86-4 198l166 0l10-86l4 0q60 100 190 100q100 0 161-67t61-199l0-366l-192 0l0 342q0 134-98 134q-70 0-98-72q-6-12-6-48l0-356l-194 0l0 420z" horiz-adv-x="900" />
<glyph glyph-name="linkedin-circled" unicode="&#xe822;" d="m480 830q200 0 340-140t140-340q0-198-140-339t-340-141q-198 0-339 141t-141 339q0 200 141 340t339 140z m-118-678l0 312l-96 0l0-312l96 0z m-48 352q52 0 52 48t-52 48q-22 0-37-14t-15-34q0-48 52-48z m404-352l0 184q0 66-31 101t-81 35q-66 0-96-50l-2 0l-6 42l-84 0q2-28 2-100l0-212l98 0l0 180q0 18 4 24q12 38 50 38q48 0 48-68l0-174l98 0z" horiz-adv-x="960" />
<glyph glyph-name="dribbble" unicode="&#xe823;" d="m438 480q-30 54-66 109t-56 84t-24 33q-82-40-139-112t-77-162q182 0 362 48z m50-132q8 4 14 4q-10 28-32 68q-182-56-402-56l0-14q0-150 100-262q4 8 13 21t39 50t64 69t89 66t115 54z m-270-306q-2 0-4 2l-4 4z m148 690z m354-86q-114 98-260 98q-48 0-92-12q82-108 146-228q138 52 204 140z m-260-756q-190 0-325 135t-135 325t135 325t325 135t325-135t135-325t-135-325t-325-135z m68 396q-216-74-308-242l-2-2q110-84 242-84q78 0 154 32q-24 140-84 298z m16 158q12-24 26-56q2-2 5-9t5-11q66 8 129 4t101-10t42-8q0 138-88 246l-8-10q-8-10-26-27t-42-36t-62-42t-82-41z m60-138q52-148 76-280q140 92 168 262q-8 4-39 11t-88 12t-117-5z" horiz-adv-x="920" />
<glyph glyph-name="dribbble-circled" unicode="&#xe824;" d="m494 352q-44-14-82-44t-55-51t-25-35q-48 58-48 128l0 4q106 0 200 28l14-28z m114 148q-32-42-100-68q-26 48-70 110q14 4 42 4q72 0 128-46z m-246-304q40 80 152 120q34-92 40-146q-36-16-74-16q-68 0-118 42z m104 222q-92-24-176-24q18 92 104 134q32-40 72-110z m90-92q12 2 38 2q30 0 80-10q-16-82-82-128q-6 56-36 136z m-76 504q200 0 340-140t140-340q0-198-140-339t-340-141q-198 0-339 141t-141 339q0 200 141 340t339 140z m0-714q98 0 167 69t69 165q0 98-69 167t-167 69t-166-69t-68-167q0-96 68-165t166-69z m46 282q72 28 108 74q42-52 42-116q-48 8-90 8q-30 0-44-2q-2 2-2 4q0 4-2 4q-2 4-6 13t-6 15z" horiz-adv-x="960" />
<glyph glyph-name="stumbleupon" unicode="&#xe825;" d="m552 448l0 60q0 22-15 37t-37 15q-20 0-36-15t-16-37l0-314q0-92-66-158t-158-66t-158 66t-66 158l0 132l172 0l0-132q0-20 16-36t36-16t36 16t16 36l0 314q0 92 66 157t158 65t158-65t66-157l0-60l-102-34z m278-122l170 0l0-132q0-92-66-158t-158-66t-158 66t-66 158l0 134l70-32l102 32l0-134q0-20 16-36t36-16q22 0 38 15t16 37l0 132z" horiz-adv-x="1000" />
<glyph glyph-name="stumbleupon-circled" unicode="&#xe826;" d="m480 830q198 0 339-140t141-340q0-198-141-339t-339-141q-200 0-340 141t-140 339q0 200 140 340t340 140z m0-368q26 0 26-26l0-30l34-18l52 18l0 30q0 46-33 79t-79 33t-80-33t-34-79l0-160q0-26-26-26t-26 26l0 68l-88 0l0-68q0-46 34-79t80-33t79 33t33 79l0 160q0 26 28 26z m252-186l0 68l-86 0l0-68q0-26-26-26q-28 0-28 26l0 68l-52-16l-34 16l0-68q0-46 33-79t81-33q46 0 79 33t33 79z" horiz-adv-x="960" />
<glyph glyph-name="lastfm" unicode="&#xe827;" d="m394 222l34-100q-64-52-168-52q-106 0-183 73t-77 199q0 130 80 209t188 79q112 0 167-45t91-159l36-116q48-146 202-146q120 0 120 60q0 54-78 72l-78 18q-134 34-134 152q0 88 58 126t146 38q184 0 198-146l-114-14q-8 70-90 70t-82-62q0-50 66-66l74-16q150-36 150-166q0-160-238-160q-136 0-204 53t-100 149l-36 116q-14 40-22 60t-25 43t-42 33t-61 10q-64 0-113-46t-49-142q0-80 46-130t110-50q60 0 128 56z" horiz-adv-x="1000" />
<glyph glyph-name="lastfm-circled" unicode="&#xe828;" d="m480 830q198 0 339-140t141-340q0-198-141-339t-339-141q-200 0-340 141t-140 339q0 200 140 340t340 140z m132-620q120 0 120 80q0 66-76 84l-38 8q-32 8-32 34q0 30 40 30q44 0 46-34l58 6q-6 74-100 74q-102 0-102-84q0-60 66-76l40-8q40-10 40-36q0-32-62-32q-76 0-100 74l-20 58q-18 58-45 81t-85 23q-54 0-95-40t-41-106q0-62 39-99t93-37t86 26l-18 50q-28-28-66-28q-32 0-55 25t-23 65q0 50 25 73t57 23q34 0 49-18t27-56l18-58q32-102 154-102z" horiz-adv-x="960" />
<glyph glyph-name="rdio" unicode="&#xe801;" d="m766 402q4-32 4-52q0-160-113-275t-273-115q-158 0-271 115t-113 275q0 162 112 276t272 114q52 0 90-10l0-222q-76 26-154-10q-70-34-101-101t-5-129q26-60 95-79t139 15q52 26 87 80t35 122l0 286q16-8 24-14q174-108 310-114q32-2 4-52q-42-76-130-106z" horiz-adv-x="921" />
<glyph glyph-name="rdio-circled" unicode="&#xe83c;" d="m480 830q198 0 339-140t141-340q0-198-141-339t-339-141q-200 0-340 141t-140 339q0 200 140 340t340 140z m170-454q52 16 72 60q12 22-4 22q-72 4-156 58q-2 2-6 4t-6 4l0-146q0-74-62-100q-34-18-69-9t-49 41q-14 30 2 64t52 50q36 20 78 6l0 112q-22 6-46 6q-80 0-137-58t-57-140q0-80 57-138t137-58t138 58t58 138q0 6-1 14t-1 12z" horiz-adv-x="960" />
<glyph glyph-name="spotify" unicode="&#xe829;" d="m440 790q182 0 311-129t129-311q0-110-51-205t-139-157q-100 170-310 176q-162 6-272-104q-108 124-108 290q0 184 128 312t312 128z m214-596q16 22-8 38q-172 106-422 48q-26-8-20-32q6-26 32-22q228 54 382-40q22-14 36 8z m54 124q18 30-12 48q-100 62-235 77t-251-19q-32-10-24-44q12-32 42-22q104 32 225 18t209-68q28-20 46 10z m4 130q34-20 56 14q20 34-14 56q-116 68-288 82t-282-24q-14-4-22-19t-4-31q10-38 50-28q94 34 249 22t255-72z m-336-414q120-6 172-110q-64-14-108-14q-114 0-214 56q58 72 150 68z" horiz-adv-x="880" />
<glyph glyph-name="spotify-circled" unicode="&#xe82a;" d="m480 830q198 0 339-140t141-340q0-120-56-224t-152-170q-108 186-338 192q-176 6-296-114q-118 138-118 316q0 200 140 340t340 140z m234-650q14 26-10 40q-188 114-460 54q-30-8-22-36q8-30 36-22q246 58 416-46q26-14 40 10z m58 136q18 34-12 50q-110 68-256 85t-276-21q-34-10-24-46q10-34 46-26q112 34 244 19t228-73q32-20 50 12z m4 142q38-24 62 14q20 38-16 62q-126 74-314 89t-306-27q-18-4-27-21t-3-33q6-18 22-27t34-3q102 36 271 23t277-77z m-364-454q130-4 186-118q-60-16-118-16q-126 0-234 62q66 74 166 72z" horiz-adv-x="960" />
<glyph glyph-name="qq" unicode="&#xe82b;" d="m812 200q30-22 38-53t-12-61q-110-154-298-187t-344 77q-24 16-38 30q76-24 148-25t128 18t101 43t80 57t53 52t28 35q20 30 53 33t63-19z m-612 30q14-32 1-61t-47-45q-32-16-64-7t-46 41q-80 172-14 352t238 260q24 10 44 16q-84-76-123-170t-32-178t18-130t25-78z m302 580q190-18 312-164t106-336q-4-32-8-48q-20 92-67 163t-98 109t-110 63t-92 32t-57 9q-34 2-54 29t-16 63q4 38 26 60t58 20z m-196-486q16 38 34 46l0 6q0 12 8 24l0 2q0 8 2 12q4 50 33 82t79 32q48 0 78-32t32-82q2-4 2-12l0-2q8-8 8-24l0-6q18-8 34-46q26-54 6-66q-12-6-30 22q-6-28-30-46q26-10 26-26q0-14-18-23t-44-9q-52 0-60 26l-8 0q-12-26-62-26q-26 0-44 9t-18 23q0 16 26 26q-24 20-30 46q-18-28-28-22q-22 10 4 66z" horiz-adv-x="922" />
<glyph glyph-name="instagram" unicode="&#xe82c;" d="m690 350q0 26-6 50l176 0l0-344q0-56-39-96t-95-40l-592 0q-56 0-95 40t-39 96l0 344l174 0q-4-32-4-50q0-106 76-183t184-77q106 0 183 77t77 183z m36 430q56 0 95-39t39-95l0-146l-218 0q-78 110-212 110q-138 0-212-110l-218 0l0 146q0 56 39 95t95 39l592 0z m64-166l0 72q0 24-24 24l-72 0q-24 0-24-24l0-72q0-8 7-16t17-8l72 0q24 0 24 24z m-200-264q0-66-47-113t-113-47t-113 47t-47 113q0 68 47 114t113 46t113-46t47-114z" horiz-adv-x="860" />
<glyph glyph-name="dropbox" unicode="&#xe82d;" d="m286 806l194-158l-284-184l-196 164z m368-754q8 0 12 2l116 78l0-46l-302-190l-302 190l0 46l118-78q4-2 12-2q10 0 14 4l158 132l160-132q4-4 14-4z m306 576l-194-164l-286 184l196 158z m-480-342l286 178l174-140l-282-184z m-176-146l-282 184l174 140l284-178z" horiz-adv-x="960" />
<glyph glyph-name="evernote" unicode="&#xe82e;" d="m750 636q0-4 5-73t9-144t-1-171t-19-171t-51-126t-91-51q-154 0-194 26q-26 20-18 130q2 40 37 59t69 19l34-2l-4-70q-12-2-38-2q-20 0-24-26q-4-38 40-42l86 4q38 4 28 136q-2 16-18 26t-34 13t-49 8t-47 9q-28 8-46 28t-27 37t-11 17t-8-58t-30-58q-44 0-139 15t-115 35q-34 34-62 149t-28 151q0 34 58 30l116 0q78 0 78 72q0 12-1 52t-1 60q0 82 40 82q90 0 120-14q18-8 29-26t13-34l4-14l202-12q10 0 25-3t39-19t24-42z m-96-302q6 6-2 32t-29 52t-49 26t-45-23t-21-46t0-29q8-6 15-5t26 5t31 4q14 0 31-6t28-10t15 0z m-482 308q0-22-28-22l-144 0l176 172q-4-138-4-150z" horiz-adv-x="766" />
<glyph glyph-name="flattr" unicode="&#xe82f;" d="m180 424l0-210l-180-180l0 414q0 302 278 302l442 0l-312-310q-6-6-10-6q-8 0-12 10l0 128q-98 0-112-2q-94-16-94-146z m440 64l180 180l0-414q0-304-278-304l-440 0l312 312q2 6 8 6q8 0 12-10l0-128q98 0 112 2q94 16 94 146l0 210z" horiz-adv-x="800" />
<glyph glyph-name="skype" unicode="&#xe830;" d="m894 250q26-58 26-118q0-108-75-185t-179-77q-62 0-120 32q-52-8-80-8q-182 0-311 132t-129 320q0 44 10 90q-36 60-36 134q0 108 74 184t180 76q74 0 136-40q32 8 76 8q182 0 310-132t128-320q0-46-10-96z m-204-120q30 46 30 100q0 44-16 80q-16 30-50 54q-36 22-76 36q-68 20-96 26q-14 2-35 7t-27 7q-24 8-34 14q-16 8-26 22q-10 10-10 26q0 24 28 42q26 20 76 20t74-18q26-22 38-50q16-26 26-36q16-12 38-12q26 0 46 20q18 18 18 44q0 20-14 52q-16 24-42 48q-28 22-74 38q-48 14-102 14q-72 0-128-22q-56-20-86-60t-30-92t28-90q34-40 76-56q48-22 116-36q12-2 29-7t30-8t21-5q28-10 46-28q18-14 18-42q0-34-32-56q-36-24-90-24q-40 0-64 12q-26 14-36 28q-24 44-26 46q-8 24-24 40q-20 14-40 14q-28 0-46-18t-18-42q0-38 28-82q26-40 72-66q64-34 158-34q78 0 138 24q60 28 88 70z" horiz-adv-x="920" />
<glyph glyph-name="skype-circled" unicode="&#xe831;" d="m588 358q20-12 28-30q10-20 10-44q0-32-18-56q-12-22-48-40q-38-14-78-14q-54 0-88 20q-22 12-40 36q-16 26-16 46q0 14 10 24q14 10 26 10q14 0 22-8q8-4 14-22q2-6 7-15t7-11q6-8 20-16q16-6 36-6q32 0 50 12q18 14 18 32q0 16-10 24q-10 10-26 16q-6 2-21 5t-23 5q-20 4-66 20q-20 10-42 32q-16 22-16 52q0 28 18 50q16 22 48 34q30 12 72 12q34 0 56-8q20-4 42-20q18-18 24-28q6-16 6-30t-10-24t-24-10q-12 0-22 6q-8 8-14 20q-10 18-22 28q-10 10-42 10q-26 0-42-10q-16-12-16-24q0-10 6-16q8-8 14-10q4-2 20-8q18-6 34-10q36-8 54-14q28-10 42-20z m-108 472q200 0 340-140t140-340q0-198-140-339t-340-141q-198 0-339 141t-141 339q0 200 141 340t339 140z m116-748q58 0 100 43t42 103q0 34-16 66q6 28 6 54q0 104-72 178t-174 74q-28 0-42-2q-34 22-74 22q-60 0-102-43t-42-103q0-40 20-76q-4-16-4-50q0-104 72-178t172-74q32 0 46 4q30-18 68-18z" horiz-adv-x="960" />
<glyph glyph-name="renren" unicode="&#xe832;" d="m384 808l0-292q-2-150-77-274t-197-184q-110 130-110 296q0 170 110 298t274 156z m76-570q42-174 222-288q-102-56-222-56t-220 56q178 114 220 288z m76 280l0 290q164-28 274-156t110-298q0-168-108-296q-124 60-200 184t-76 276z" horiz-adv-x="920" />
<glyph glyph-name="sina-weibo" unicode="&#xe833;" d="m732 348q118-38 118-136q0-102-127-197t-313-95q-160 0-285 78t-125 196q0 130 146 280q92 92 186 129t134-3q36-36 10-116q-4-14 8-14l16 2q74 34 134 34t84-34q24-36-2-100q-6-18 16-24z m-322-354q122 12 202 77t72 145q-10 80-100 128t-212 36t-202-77t-70-145q8-80 98-128t212-36z m586 488l0-2q0-14-11-24t-25-10t-24 10t-10 24q0 96-68 163t-162 67q-16 0-26 10t-10 26q0 34 36 34q124 0 212-87t88-211z m-140 4q4-14-4-27t-22-15q-34-4-42 28q-8 38-36 66t-66 36q-34 8-26 40q8 36 42 28q58-12 100-55t54-101z m-528-210q48 10 88-12t48-62q10-40-19-77t-79-45q-48-10-88 12t-48 62t20 76t78 46z" horiz-adv-x="996" />
<glyph glyph-name="paypal" unicode="&#xe834;" d="m771 610l8-4q38-22 60-62q20-38 20-96q0-130-110-210q-106-80-306-80l-30 0q-16 0-32-12t-20-28l-36-156q-12-42-52-42l-106 0q-18 0-28 13t-6 29l6 24l68 0q16 0 32 13t20 29l36 156q10 40 52 40l30 0q196 0 306 80q110 82 110 210q0 56-22 96z m-580-516q-2-16-18-29t-32-13l-108 0q-18 0-27 13t-5 29l150 646q10 40 52 40l224 0q78 0 126-8q56-12 94-34q36-24 58-62q20-38 20-96q0-130-110-210q-106-80-304-80l-32 0q-16 0-32-12t-18-28z m88 374q-4-16 6-28t26-12l28 0q86 0 134 36q48 34 48 98q0 44-30 64q-32 20-94 20l-34 0q-42 0-52-40z" horiz-adv-x="859" />
<glyph glyph-name="picasa" unicode="&#xe835;" d="m250 760q10-12 158-144l-396-362q-12 48-12 96q0 130 67 240t183 170z m400 10l0-278l-328 296q64 22 138 22q98 0 190-40z m70-40q94-64 147-165t53-215q0-80-26-152l-174 0l0 532z m-686-550q12 12 66 60l102 92l0-362q-116 80-168 210z m238-250l0 198l590 0q-56-100-151-163t-209-75l-84 0q-84 10-146 40z" horiz-adv-x="920" />
<glyph glyph-name="soundcloud" unicode="&#xe836;" d="m34 178q0-4-10-4q-6 0-10 4l-14 70l14 72q4 4 10 4q10 0 10-4l16-72z m102-38q0-8-12-8t-12 8l-12 108l12 166q0 8 12 8t12-8l14-166z m102 2q0-10-14-10t-14 8l-10 108l10 222q0 10 14 10t14-10l12-222z m102 0q0-10-16-10t-16 10l-8 106l8 224q0 10 16 10t16-10l10-224z m102 2q0-12-18-12q-16 0-18 12l-6 104l6 256q4 14 18 14q18 0 18-14l8-256z m72-12q-14 0-14 14l0 396q0 10 12 14q36 14 84 14q88 0 153-58t73-142q24 10 50 10q52 0 90-37t38-87q0-52-38-89t-90-37z" horiz-adv-x="1000" />
<glyph glyph-name="mixi" unicode="&#xe837;" d="m477-12q-184 0-319 101t-155 255q-22 170 108 308t336 164t366-77t182-273q14-118-35-244t-165-225t-270-117l0 108l-48 0z m306 220l0 276q0 34-10 52q-8 18-30 38q-16 12-44 20q-28 6-56 6q-44 0-74-16q-24-12-42-30q-10 16-36 32q-30 14-70 14q-66 0-110-38l0 30l-88 0l0-384l92 0l0 236q0 4 4 20q4 10 16 26q10 14 26 20q20 10 40 10q18 0 30-6q8-4 16-10q4-8 8-20q4-16 4-28l0-248l90 0l0 236q0 36 22 54q22 22 62 22q20 0 32-6q10-2 16-12q8-8 8-18q4-20 4-28l0-248l90 0z" horiz-adv-x="998" />
<glyph glyph-name="behance" unicode="&#xe838;" d="m404 386q56 0 85-40t31-80l0-40q0-56-20-96t-50-58t-59-27t-49-11l-342 0l0 646l322 0q78 0 127-44t49-128q0-50-23-81t-47-37z m-262 180l0-144l170 0q26 0 40 15t14 61q0 30-11 47t-23 19l-10 2l-180 0z m172-416q74 0 74 84q0 40-16 62t-32 24l-18 2l-180 0l0-172l172 0z m468 366q70 0 118-29t67-70t27-82t6-69l-2-30l-320 0q0-54 27-82t55-28l26-2q46 0 71 17t27 33l2 18l108 0q0-82-53-124t-105-44l-54-2q-72 0-122 25t-72 62t-33 73t-11 60l0 26q0 10 1 27t14 60t36 75t72 59t115 27z m98-194q0 4-1 11t-6 24t-13 30t-28 24t-46 11q-42 0-70-25t-34-51l-6-24l204 0z m26 320l0-78l-256 0l0 78l256 0z" horiz-adv-x="1000" />
<glyph glyph-name="google-circles" unicode="&#xe839;" d="m556 810q152 0 258-106t106-256q0-142-96-247t-236-115q-34-86-112-141t-172-55q-126 0-215 90t-89 214q0 96 54 173t140 111q12 140 116 236t246 96z m-252-818q118 0 174 100q-104 22-179 97t-97 179q-100-56-100-174q0-84 59-143t143-59z m4 404q16-76 70-129t128-69q-2 80-60 138t-138 60z m300-198q88 18 145 88t57 162q0 106-75 180t-179 74q-90 0-161-58t-87-146q124-2 211-89t89-211z m-504 398q-42 0-73 30t-31 72q0 44 31 74t73 30q44 0 74-30t30-74q0-42-30-72t-74-30z m0 160q-24 0-40-17t-16-41q0-22 16-39t40-17t41 17t17 39q0 24-17 41t-41 17z" horiz-adv-x="920" />
<glyph glyph-name="smashing" unicode="&#xe803;" d="m418 286q150-58 160-142q8-60-56-84q-22-10-50-10q-56 0-110 20t-78 40l-26 18l-74-170q64-32 136-56l-80-20q-28-6-52 9t-32 43l-154 646q-6 28 9 53t43 31l186 44q-66-72-60-182q6-78 72-141t166-99z m520-164q8-28-8-53t-44-31l-136-34q42 58 44 136q4 88-54 164t-186 118q-152 52-158 126q-6 52 56 72q24 10 54 8q58-2 102-17t60-29l16-14l58 160q-80 42-176 60l134 32q28 6 52-9t32-43z" horiz-adv-x="940" />
<glyph glyph-name="sweden" unicode="&#xe83d;" d="m850 650q20 0 35-15t15-35l0-200l-500 0l0 250l450 0z m-850-550l0 200l300 0l0-250l-260 0q-40 0-40 50z m400-50l0 250l500 0l0-200q0-22-14-36t-36-14l-450 0z m-400 550q0 50 40 50l260 0l0-250l-300 0l0 200z" horiz-adv-x="900" />
<glyph glyph-name="db-shape" unicode="&#xe804;" d="m450 800q276 0 363-88t87-362q0-276-87-363t-363-87q-274 0-362 87t-88 363q0 274 88 362t362 88z" horiz-adv-x="900" />
</font>
</defs>
</svg>
